Пьянь / Barfly (Барбет Шрёдер / Barbet Schroeder) [1987 г., драма, мелодрама, комедия, BDRip] AVO (Михалев Алексей) + DVO (НТВ)

 

Создавать темы 06-Июн-2014 04:18

Пьянь / BarflyЗавсегдатай бара Год выпуска: 1987
Производство: США
Жанр: драма, мелодрама, комедия
Продолжительность: 01:40:00
Перевод 1: Авторский (одноголосый, закадровый) Михалев Алексей
Перевод 2: Профессиональный (двухголосый, закадровый) НТВ
Субтитры: отсутствуют
Режиссер: Барбет Шрёдер / Barbet Schroeder
Автор сценария: Чарльз Буковски / Charles Bukowski
В ролях: Микки Рурк, Фэй Данауэй, Элис Крайдж, Джек Нэнс, Дж.С. Куинн, Сэнди Мартин, Роберта Бэссин, Глория Лерой, Джо Унгер, Прюитт Тейлор Винс, Уил Альберт, Перл Шир, Рик Колитти, Майкл Коллинз, Рональд Дж. Джозеф, Дэймон Хайнс, Ламар Дж. Тэйт, Гэри Сервантес, Хэл Шафер, Вэнс Колвиг мл., Зик Мэннерс, Стэйси Пикрен, Леонард Термо, Фриц Фелд, Альберт Хендерсон, Джордж Маршалл Рюге-Описание: Фильм поставлен по автобиографическому роману известного американского писателя Чарлза Буковски, завсегдатая многочисленных питейных заведений, откуда он черпает не только горячительные напитки, но и темы для своих произведений.
Микки Рурк в роли Генри - хронического алкоголика, отброса общества и одновременно с этим талантливого, но разочаровавшегося в жизни писателя, который зарабатывает на кусок хлеба и стакан пойла своими кулаками.
Он участвует во всех потасовках, его избивают до полусмерти, его лицо напоминает отбивную, но на него делают ставки и он никогда не сдается.
Грязный забулдыга со скверным характером, такому человеку нелегко найти спутницу жизни, но однажды он встречает женщину по имени Ванда (Фэй Данауэй), которая проявляет к нему интерес.
У нее водятся деньги и есть крыша над головой, но тяга к алкоголю и независимости сыграла с ней злую шутку. Генри и Ванда будто созданы друг для друга, вместе они вновь могут стать частью общества. Но нужно ли им это?

Детям до 17 лет обязательно присутствие родителей.-
Качество видео: BDRip
Контейнер: AVI
Видео кодек: XviD
Аудио кодек: AC3
Видео: 704x384 (1.85:1), 23.976 fps, XviD build 50 ~1917 kbps avg, 0.29 bit/pixel
Аудио #1: 48 kHz, AC3 Dolby Digital, 2/0 (L,R) ch, ~192.00 kbps avg - Михалев Алексей
Аудио #2: 48 kHz, AC3 Dolby Digital, 2/0 (L,R) ch, ~192.00 kbps avg - НТВ

Доп. информация

Исходник: BDRemux-BDAV: порошков

Награды

Золотой глобус, 1988 год
Номинации (1):
Лучшая женская роль (драма) (Фэй Данауэй)
Каннский кинофестиваль, 1987 год
Номинации (1):
Золотая пальмовая ветвь

Интересно

Чарлз Буковски, автор сценария и американский писатель, появляется в фильме в небольшом камео. Когда герой Микки Рурка идет в бар Kenmore, за стойкой можно заметить Чарлза Буковски. Ближний к Ванде. Пьет пиво.

Media Info

Видео
Идентификатор : 0
Формат : MPEG-4 Visual
Профиль формата : Advanced [email protected]
Параметр BVOP формата : 1
Параметр QPel формата : Нет
Параметр GMC формата : Без точки перехода
Параметр матрицы формата : Выборочная
Идентификатор кодека : XVID
Идентификатор кодека/Подсказка : XviD
Продолжительность : 1 ч. 40 м.
Битрейт : 1917 Кбит/сек
Ширина : 704 пикселя
Высота : 384 пикселя
Соотношение сторон : 1,85:1
Частота кадров : 23,976 кадра/сек
Цветовое пространство : YUV
Субдискретизация насыщенности : 4:2:0
Битовая глубина : 8 бит
Тип развёртки : Прогрессивная
Метод сжатия : С потерями
Бит/(Пиксели*Кадры) : 0.296
Размер потока : 1,34 Гбайт (83%)
Библиотека кодирования : XviD 1.2.1 (UTC 2008-12-04)
Аудио #1
Идентификатор : 1
Формат : AC-3
Формат/Информация : Audio Coding 3
Расширение режима : CM (complete main)
Параметр Endianness формата : Big
Идентификатор кодека : 2000
Продолжительность : 1 ч. 40 м.
Вид битрейта : Постоянный
Битрейт : 192 Кбит/сек
Каналы : 2 канала
Расположение каналов : Front: L R
Частота : 48,0 КГц
Битовая глубина : 16 бит
Метод сжатия : С потерями
Размер потока : 137 Мбайт (8%)
Выравнивание : Разделение по промежуткам
Продолжительность промежутка : 42 мс. (1,00 видеокадр)
Время предзагрузки промежутка : 500 мс.
Аудио #2
Идентификатор : 2
Формат : AC-3
Формат/Информация : Audio Coding 3
Расширение режима : CM (complete main)
Параметр Endianness формата : Big
Идентификатор кодека : 2000
Продолжительность : 1 ч. 40 м.
Вид битрейта : Постоянный
Битрейт : 192 Кбит/сек
Каналы : 2 канала
Расположение каналов : Front: L R
Частота : 48,0 КГц
Битовая глубина : 16 бит
Метод сжатия : С потерями
Размер потока : 137 Мбайт (8%)
Выравнивание : Разделение по промежуткам
Продолжительность промежутка : 42 мс. (1,00 видеокадр)
Время предзагрузки промежутка : 500 мс.

Скриншоты

Яндекс.Метрика
Рейтинг@Mail.ru