Призрачный патруль / R.I.P.D. (Роберт Швентке) [2013, фэнтези, боевик, комедия, криминал, BDRip] от Youtracker | iTunes Russia

 

Создавать темы 19-Окт-2013 08:44

Призрачный патруль / R.I.P.D
«Они защищают наш мир от гостей с того света»
- Страна: США
Жанр: фэнтези, боевик, комедия, криминал
Год выпуска: 2013
Продолжительность: 01:35:50-Перевод: Профессиональный (полное дублирование) iTunes Russia
Режиссер: Роберт Швентке / Robert Schwentke
В ролях: Джефф Бриджес (Roy), Райан Рейнольдс (Nick), Кевин Бейкон (Hayes), Мэри-Луиз Паркер (Proctor), Стефани Зостак (Julia), Джеймс Хонг (Nick's Avatar), Мариса Миллер (Roy's Avatar), Роберт Неппер (Stanley Nawlicki), Майк О’Мэлли (Elliot), Девин Рэтрей (Pulaski), Ларри Джо Кэмпбелл (Officer Murphy), Майкл Кунс (Detective in Locker Room)
Дублёры: Владимир Антоник (Roy), Пётр Иващенко (Nick), Владимир Зайцев (Hayes), Диомид Виноградов (Nick's Avatar), Сергей Чихачев (Elliot)-Описание: Молодой полицейский на пике своей карьеры, во время очередного захвата банды преступников погибает. Попав в потусторонний мир он узнает что и там нет покоя, с учетом его способностей ему предлагают работу в "ПП". Это отряд по борьбе с всякой нечистью, духами и призраками, состоящий в организации R.I.P.D. Условие такое, целых сто лет он должен горбатится в команде бессмертных полицейских, выхода нет он соглашается. В напарники ему достается вредный коп старшего возраста, который торчит там еще с времен дикого запада, эпохи ковбоев и бандитов. Работа не простая, духи и разные бежавшие твари могут скрываться даже в мире живых, иногда переселившись в людские тела наши копы делают свое дела и в нашем мире, им все под силу, они же элита.-
MPAA: PG-13 - Детям до 13 лет просмотр не желателен--Качество: BDRip | sample
Контейнер: AVI
Видео: XviD, 720x304, 949 kbps, 23,976 fps, Бит/Пик: 0.181
Аудио: MP3 / 2ch / 48 kHz / 128 kbps -

Скриншоты

Media Info

Общее
Полное имя : D:R.I.P.D.2013.D.BDRip.745mb.YTN.By_Flash.avi
Формат : AVI
Формат/Информация : Audio Video Interleave
Размер файла : 745 Мбайт
Продолжительность : 1 ч. 35 м.
Общий поток : 1086 Кбит/сек
Программа кодирования : VirtualDubMod 1.5.10.3 | www.virtualdub-fr.org || (build 2550/release)
Библиотека кодирования : VirtualDubMod build 2550/release
Видео
Идентификатор : 0
Формат : MPEG-4 Visual
Профиль формата : Advanced [email protected]
Параметр BVOP формата : 1
Параметр QPel формата : Нет
Параметр GMC формата : Без точки перехода
Параметр матрицы формата : Выборочная
Идентификатор кодека : XVID
Идентификатор кодека/Подсказка : XviD
Продолжительность : 1 ч. 35 м.
Битрейт : 949 Кбит/сек
Ширина : 720 пикселей
Высота : 304 пикселя
Соотношение сторон : 2,35:1
Частота кадров : 23,976 кадра/сек
Цветовое пространство : YUV
Субдискретизация насыщенности : 4:2:0
Битовая глубина : 8 бит
Тип развёртки : Прогрессивная
Метод сжатия : С потерями
Бит/(Пиксели*Кадры) : 0.181
Размер потока : 651 Мбайт (87%)
Библиотека кодирования : XviD 65
Аудио
Идентификатор : 1
Формат : MPEG Audio
Версия формата : Version 1
Профиль формата : Layer 3
Идентификатор кодека : 55
Идентификатор кодека/Подсказка : MP3
Продолжительность : 1 ч. 35 м.
Вид битрейта : Постоянный
Битрейт : 128 Кбит/сек
Каналы : 2 канала
Частота : 48,0 КГц
Метод сжатия : С потерями
Размер потока : 87,7 Мбайт (12%)
Выравнивание : Соединение по промежуткам
Продолжительность промежутка : 42 мс. (1,00 видеокадр)
Время предзагрузки промежутка : 504 мс.
Библиотека кодирования : L3.99r
Настройки программы : -m s -V 4 -q 2 -lowpass 17 -b 128

_________________
Подпись отключена за нарушение правил форума
Яндекс.Метрика
Рейтинг@Mail.ru