Отель «Гранд Будапешт» / The Grand Budapest Hotel (Уэс Андерсон / Wes Anderson) [2014 г., Комедия, детектив, приключения, криминал, WEB-DL] Dub (звук с TS)

 

Создавать темы 04-Июн-2014 20:20

-Отель «Гранд Будапешт» / The Grand Budapest Hotel- Производство: Великобритания, Германия, Scott Rudin Productions, Indian Paintbrush, Studio Babelsberg
Год выпуска: 2014 г.
Жанр: Комедия, детектив, приключения, криминал
Продолжительность: 01:37:57
Мировая премьера: 6 февраля 2014
Российская премьера: 13 марта 2014, «Двадцатый Век Фокс СНГ»
Дата выхода DVD: 10 июля 2014, «Двадцатый Век Фокс СНГ»
Дата выхода Blu-Ray: 10 июля 2014, «Двадцатый Век Фокс СНГ»
Перевод: Профессиональный (полное дублирование) [звук с TS]-Режиссер: Уэс Андерсон / Wes Anderson
В ролях: Рэйф Файнс, Тони Револори, Сирша Ронан, Эдриан Броуди, Уиллем Дефо, Ф. Мюррэй Абрахам, Джуд Лоу, Эдвард Нортон, Джефф Голдблюм, Харви Кейтель-Описание: Фильм рассказывает об увлекательных приключениях легендарного консьержа Густава и его юного друга, портье Зеро Мустафы. Сотрудники гостиницы становятся свидетелями кражи и поисков бесценных картин эпохи Возрождения, борьбы за огромное состояние богатой семьи и… драматических изменений в Европе между двумя кровопролитными войнами XX века.- -Качество видео: WEB-DL
Контейнер: AVI
Видео кодек: XviD
Аудио кодек: MP3
Видео: 720x384 (1.88:1), 23.976 fps, XviD build 50 ~1801 kbps avg, 0.27 bit/pixel
Аудио: 44.100 kHz, MPEG Layer 3, 2 ch, ~128.00 kbps avg
Cубтитры: отсутствуют

Media Info

General
Complete name : D:\Otel.Budapesht.2014.Dt.WEB-DLRip.1400MB.avi
Format : AVI
Format/Info : Audio Video Interleave
File size : 1.35 GiB
Duration : 1h 39mn
Overall bit rate : 1 939 Kbps
Writing application : VirtualDubMod 1.5.10.3 | www.virtualdub-fr.org || (build 2550/release)
Writing library : VirtualDubMod build 2550/release
Video
ID : 0
Format : MPEG-4 Visual
Format profile : Advanced [email protected]
Format settings, BVOP : 1
Format settings, QPel : No
Format settings, GMC : No warppoints
Format settings, Matrix : Default (MPEG)
Codec ID : XVID
Codec ID/Hint : XviD
Duration : 1h 39mn
Bit rate : 1 802 Kbps
Width : 720 pixels
Height : 384 pixels
Display aspect ratio : 1.85:1
Frame rate : 23.976 fps
Color space : YUV
Chroma subsampling : 4:2:0
Bit depth : 8 bits
Scan type : Progressive
Compression mode : Lossy
Bits/(Pixel*Frame) : 0.272
Stream size : 1.26 GiB (93%)
Writing library : XviD 1.2.1 (UTC 2008-12-04)
Audio
ID : 1
Format : MPEG Audio
Format version : Version 1
Format profile : Layer 3
Codec ID : 55
Codec ID/Hint : MP3
Duration : 1h 39mn
Bit rate mode : Constant
Bit rate : 128 Kbps
Channel(s) : 2 channels
Sampling rate : 44.1 KHz
Compression mode : Lossy
Stream size : 91.3 MiB (7%)
Alignment : Split accross interleaves
Interleave, duration : 42 ms (1.00 video frame)
Interleave, preload duration : 500 ms

Скриншоты

Яндекс.Метрика
Рейтинг@Mail.ru