[ Сегодня на трекере фрилич! Идет свободное скачивание без начисления Download ]

3 дня на убийство / 3 Days to Kill (МакДжи / McG) [2014 г., боевик, криминал, триллер, драма, комедия, BDRip-AVC] Dub [лицензия] + Original (Eng) + Sub (Rus, Eng) [Jolly Roger]

 

Создавать темы 04-Июн-2014 20:17

-3 дня на убийство / 3 Days to Kill- Год выпуска: 2014 г.
Производство: США, Франция, Греция, Россия
Жанр: боевик, криминал, триллер, драма, комедия
Продолжительность: 01:57:02
Перевод: Профессиональный (полное дублирование) [лицензия]
Оригинальный аудиопоток: английский
Режиссер: МакДжи / McG
В ролях: Кевин Костнер, Эмбер Хёрд, Хейли Стайнфелд, Конни Нильсен, Томас Лемаркус, Рихард Заммель, Марк Андреони, Бруно Риччи, Йонас Блоке, Эрик Эбони
Описание: В секретной лаборатории ученые разработали препарат, который позволяет человеку справиться с любой неизлечимой болезнью. Руководство спецслужб предлагает принять это лекарство экс-агенту спецслужб Итану Раннеру, которому врачи объявили смертельный диагноз. Но он должен выполнить еще одно задание, которое, впрочем, может стоить ему жизни. Теперь вокруг Раннера начинают происходить странные вещи. Что это — галлюцинации, побочный эффект от таблеток или мир действительно полон ужаса и кошмара? Качество видео: BDRip-AVC
Контейнер: MKV
Видео кодек: H.264
Аудио кодек: AC3
Видео: MPEG4 Video (H264) 1024x432 23.976fps 1764 Kbps
Аудио 1: Dolby AC3 48000Hz 6 ch 448 Kbps / Русский
Аудио 2: Dolby AC3 48000Hz 6 ch 448 Kbps / Английский
Субтитры: русские, английские (отключаемые)

Media Info / x.264

Log 2-nd pass

x264 [info]: using SAR=1/1
x264 [info]: using cpu capabilities: MMX2 SSE2Fast SSSE3 Cache64 SlowShuffle
x264 [info]: profile High, level 4.1
x264 [info]: frame I:2589 Avg QP:13.75 size: 70429
x264 [info]: frame P:44239 Avg QP:17.13 size: 18798
x264 [info]: frame B:121532 Avg QP:21.20 size: 4396
x264 [info]: consecutive B-frames: 4.7% 8.0% 10.0% 29.7% 17.8% 23.4% 6.5%
x264 [info]: mb I I16..4: 16.7% 40.3% 43.0%
x264 [info]: mb P I16..4: 6.4% 16.7% 0.0% P16..4: 40.9% 13.8% 6.4% 0.0% 0.0% skip:15.7%
x264 [info]: mb B I16..4: 0.8% 1.9% 0.0% B16..8: 29.8% 7.9% 1.9% direct: 3.0% skip:54.7% L0:39.7% L1:39.7% BI:20.6%
x264 [info]: 8x8 transform intra:66.7% inter:59.6%
x264 [info]: direct mvs spatial:96.4% temporal:3.6%
x264 [info]: coded y,uvDC,uvAC intra: 65.0% 65.8% 38.0% inter: 16.1% 10.3% 2.6%
x264 [info]: i16 v,h,dc,p: 37% 17% 17% 29%
x264 [info]: i8 v,h,dc,ddl,ddr,vr,hd,vl,hu: 24% 18% 17% 5% 7% 8% 7% 8% 7%
x264 [info]: i4 v,h,dc,ddl,ddr,vr,hd,vl,hu: 27% 17% 13% 6% 8% 8% 7% 7% 8%
x264 [info]: i8c dc,h,v,p: 29% 29% 23% 18%
x264 [info]: Weighted P-Frames: Y:3.8% UV:2.3%
x264 [info]: ref P L0: 55.4% 8.9% 17.3% 7.2% 5.6% 5.0% 0.5% 0.0%
x264 [info]: ref B L0: 80.2% 11.0% 6.0% 1.9% 0.9%
x264 [info]: ref B L1: 93.8% 6.2%
x264 [info]: kb/s:1763.80
x264 [total]: encoded 168360 frames, 1.81 fps, 1763.80 kb/s
Общее
Уникальный идентификатор : 200863916117821324293049614246680467309 (0x971CFBAB1E7B6960AFEC953FB224176D)
Полное имя : I:\3.Days.to.Kill.2014.H.264.BDRip-AVC.JRG.mkv
Формат : Matroska
Версия формата : Version 4 / Version 2
Размер файла : 2,18 Гбайт
Продолжительность : 1 ч. 57 м.
Общий поток : 2662 Кбит/сек
Название фильма : The Jolly Roger Release Group by http://Pirat.CA
Дата кодирования : UTC 2014-06-04 16:29:11
Программа кодирования : mkvmerge v6.9.1 ('Blue Panther') 32bit built on Apr 18 2014 18:15:44
Библиотека кодирования : libebml v1.3.0 + libmatroska v1.4.1
Видео
Идентификатор : 1
Формат : AVC
Формат/Информация : Advanced Video Codec
Профиль формата : [email protected]
Параметр CABAC формата : Да
Параметр ReFrames формата : 6 кадров
Идентификатор кодека : V_MPEG4/ISO/AVC
Продолжительность : 1 ч. 57 м.
Битрейт : 1764 Кбит/сек
Ширина : 1024 пикселя
Высота : 432 пикселя
Соотношение сторон : 2,40:1
Режим частоты кадров : Постоянный
Частота кадров : 23,976 кадра/сек
Цветовое пространство : YUV
Субдискретизация насыщенности : 4:2:0
Битовая глубина : 8 бит
Тип развёртки : Прогрессивная
Бит/(Пиксели*Кадры) : 0.166
Размер потока : 1,40 Гбайт (64%)
Библиотека кодирования : x264 core 130 r2273 b3065e6
Настройки программы : cabac=1 / ref=6 / deblock=0:0:0 / analyse=0x3:0x112 / me=umh / subme=10 / psy=0 / mixed_ref=0 / me_range=24 / chroma_me=1 / trellis=2 / 8x8dct=1 / cqm=0 / deadzone=21,11 / fast_pskip=0 / chroma_qp_offset=0 / threads=3 / lookahead_threads=1 / sliced_threads=0 / nr=0 / decimate=1 / interlaced=0 / bluray_compat=0 / constrained_intra=0 / bframes=6 / b_pyramid=2 / b_adapt=2 / b_bias=0 / direct=3 / weightb=1 / open_gop=0 / weightp=2 / keyint=250 / keyint_min=23 / scenecut=40 / intra_refresh=0 / rc_lookahead=50 / rc=2pass / mbtree=1 / bitrate=1764 / ratetol=1.0 / qcomp=0.60 / qpmin=0 / qpmax=69 / qpstep=4 / cplxblur=20.0 / qblur=0.5 / ip_ratio=1.40 / aq=1:1.00
Default : Да
Forced : Нет
Аудио #1
Идентификатор : 2
Формат : AC-3
Формат/Информация : Audio Coding 3
Расширение режима : CM (complete main)
Параметр Endianness формата : Big
Идентификатор кодека : A_AC3
Продолжительность : 1 ч. 57 м.
Вид битрейта : Постоянный
Битрейт : 448 Кбит/сек
Каналы : 6 каналов
Расположение каналов : Front: L C R, Side: L R, LFE
Частота : 48,0 КГц
Битовая глубина : 16 бит
Метод сжатия : С потерями
Размер потока : 375 Мбайт (17%)
Язык : Russian
Default : Да
Forced : Нет
Аудио #2
Идентификатор : 3
Формат : AC-3
Формат/Информация : Audio Coding 3
Расширение режима : CM (complete main)
Параметр Endianness формата : Big
Идентификатор кодека : A_AC3
Продолжительность : 1 ч. 57 м.
Вид битрейта : Постоянный
Битрейт : 448 Кбит/сек
Каналы : 6 каналов
Расположение каналов : Front: L C R, Side: L R, LFE
Частота : 48,0 КГц
Битовая глубина : 16 бит
Метод сжатия : С потерями
Размер потока : 375 Мбайт (17%)
Язык : English
Default : Нет
Forced : Нет
Текст #1
Идентификатор : 4
Формат : UTF-8
Идентификатор кодека : S_TEXT/UTF8
Идентификатор кодека/Информация : UTF-8 Plain Text
Язык : Russian
Default : Нет
Forced : Нет
Текст #2
Идентификатор : 5
Формат : UTF-8
Идентификатор кодека : S_TEXT/UTF8
Идентификатор кодека/Информация : UTF-8 Plain Text
Язык : English
Default : Нет
Forced : Нет

Скриншоты

Яндекс.Метрика
Рейтинг@Mail.ru