(Видеоурок) Создание своих Сборок Windows 7, 8, 8.1

 

Создавать темы 19-Окт-2013 06:09

(Видеоурок) Создание своих Сборок Windows 7, 8, 8.1 by Yagd- Автор (режиссер): Yagd
Название: Создание своих Сборок Windows 7, 8, 8.1
Год выпуска: 2013
Жанр: Видеоурок
Продолжительность: 02:39:28
Качество: PCRec
Формат: AVI
Видео кодек: DivX
Аудио кодек: MP3
Видео: 1920x1080 (1.78:1), 29.970 fps, DivX Codec 5.x or 6.x ~3448 kbps
Аудио: 44.100 kHz, MPEG Layer 3, 2 ch, ~128.00 kbps
Описание: Данный Видеоурок создан специально для тех кто устал постоянно скачивать немереное количество сборок, тестировать их и подбирать для себя оптимальный вариант. Посмотрев урок Вы сами сможете создавать качественные сборки Windows 7\8\8.1. Потратив всего 2 часа на обучение вы будете создавать сборки Windows как для себя так и для своих друзей! Удачи всем!
Данный пакет состоит из Видеоурока который разделен на 2 видеофайла, а также в нем находятся необходимые файлы для создания сборок!

MediaInfo

Video
ID : 0
Format : MPEG-4 Visual
Format profile : [email protected]
Format settings, BVOP : No
Format settings, QPel : No
Format settings, GMC : No warppoints
Format settings, Matrix : Default (H.263)
Codec ID : DX50
Codec ID/Hint : DivX 5
Duration : 48mn 47s
Bit rate : 3 456 Kbps
Width : 1 920 pixels
Height : 1 080 pixels
Display aspect ratio : 16:9
Frame rate : 29.970 fps
Color space : YUV
Chroma subsampling : 4:2:0
Bit depth : 8 bits
Scan type : Progressive
Compression mode : Lossy
Bits/(Pixel*Frame) : 0.056
Stream size : 1.18 GiB (96%)
Writing library : Lavc54.86.100
Audio
ID : 1
Format : MPEG Audio
Format version : Version 1
Format profile : Layer 3
Mode : Joint stereo
Mode extension : MS Stereo
Codec ID : 55
Codec ID/Hint : MP3
Duration : 48mn 47s
Bit rate mode : Constant
Bit rate : 128 Kbps
Channel count : 2 channels
Sampling rate : 44.1 KHz
Compression mode : Lossy
Stream size : 44.7 MiB (4%)
Alignment : Aligned on interleaves
Interleave, duration : 26 ms (0.78 video frame)
Interleave, preload duration : 26 ms
Writing library : LAME3.98.4

Скриншоты:



Создавать темы 19-Окт-2013 07:53 (спустя 1 час 43 минуты)

ksd66, Спасибо

Создавать темы 28-Сен-2014 19:42 (спустя 11 месяцев 9 дней)

Благодарю!
Яндекс.Метрика
Рейтинг@Mail.ru