Евгений Макашов | Сборник видеоуроков по работе с программой Web Page Maker + шаблоны (2012 - 2013) [PCRec]

 

Создавать темы 19-Окт-2013 06:00

Евгений Макашов | Сборник видеоуроков по работе с программой Web Page Maker + шаблоны (2012 - 2013) [PCRec]- Автор (режиссер): Евгений Макашов, Вера Фролова, Александр Бобрин
Название: Сборник видеоуроков по работе с программой Web Page Maker
Год выпуска: 2012 - 2013
Жанр: Обучающие видеоуроки
Продолжительность: 01:27:51
Качество видео: PCRec
Видеокодек: AVC
Битрейт видео: ~15/25fps, 316 - 686kbps
Размер кадра: 1224x720/1280x720
Аудиокодек: AAC
Битрейт аудио: 44100Hz stereo 143/151kbps
Доп. материалы: Есть
Описание:
В прилагаемых видеоуроках описываются основные функции и возможности программы, а так же подробно показывается как можно создавать различные (от самых простых - одностраничных, до более сложных - многостраничных) веб-сайты с помощью Web Page Maker. Ещё Вы узнаете как исправлять ошибки с кодировкой возникающие при вёрстке сайта в программе - Web Page Maker.

Дополнительная информация:

Содержание:
1. Создание сайта с несколькими страницами при помощи Web Page Maker (4 части)
2. Создание самого простого сайта
3. Как создать сайт - "воронку"
В раздаче содержится Web Page Maker 3.21 + Rus + Portable-Web Page Maker - это очень простой инструмент для создания, редактирования и загрузки на FTP сервер собственного сайта. С его помощью Вы сможете создать свою страничку даже не обладая никакими знаниями HTML. Просто перетаскивайте мышкой на рабочее пространство программы изображения, текст, музыку и видео. Во время работы Вы с лёгкостью можете передвигать объекты по всей странице. В программе уже содержится несколько высококачественных шаблонов, которые ещё больше упростят Вам задачу по созданию собственного сайта.
Также программа включает в себя встроенные панели навигации, которые могут быть вставлены на веб-страницу, а наличие в программе различных заготовок: библиотеки Java - скриптов, таблиц, форм, фреймов, изображений и множества дополнительных функций сделают Ваш сайт неотличимым от созданного профессиональным сайтостроителем.
Основные возможности:
• Не требуется знаний HTML языка и любого другого опыта в создании веб-страниц;
• Создание страницы с помощью простого передвижения объектов в WYSIWYG редакторе;
• Создание и легкое управление сайтов с несколькими страницами;
• Возможность импорта любой внешней веб-страницы для редактирования в программе;
• Использование каскадных таблиц стилей (CSS) для контроля за представлением текста на веб-странице;
• Сотни функций: создание эскизов изображений, флэш слайд-шоу, аудио/видео, использование Javascript эффектов и т.д.;
• Встроенные шаблоны сайтов для быстрого начала создания сайта;
• Предпросмотр веб-страниц в веб-браузере за один клик;
• Встроенный FTP клиент для быстрой загрузки веб-страниц на сервер.
• Публикация веб-сайтов в интернете за один клик.

MI

Общее
Полное имя : D:\Андрей\Maker.3.21.ru
Формат : MPEG-4
Профиль формата : Base Media / Version 2
Идентификатор кодека : mp42
Размер файла : 56,4 Мбайт
Режим общего битрейта : Переменный
Общий поток : 475 Кбит/сек
Видео
Идентификатор : 1
Формат : AVC
Формат/Информация : Advanced Video Codec
Профиль формата : [url=mailto:[email protected]][email protected][/url]
Параметр CABAC формата : Да
Параметр ReFrames формата : 1 кадр
Идентификатор кодека : avc1
Идентификатор кодека/Информация : Advanced Video Coding
Битрейт : 317 Кбит/сек
Ширина : 1224 пикселя
Высота : 720 пикселей
Соотношение сторон : 1,700
Режим частоты кадров : Постоянный
Частота кадров : 25,000 кадров/сек
Цветовое пространство : YUV
Субдискретизация насыщенности : 4:2:0
Битовая глубина : 8 бит
Тип развёртки : Прогрессивная
Бит/(Пиксели*Кадры) : 0.014
Размер потока : 37,6 Мбайт (67%)
Язык : English
Аудио
Идентификатор : 2
Формат : AAC
Формат/Информация : Advanced Audio Codec
Профиль формата : LC
Идентификатор кодека : 40
Вид битрейта : Переменный
Битрейт : 151 Кбит/сек
Каналы : 2 канала
Расположение каналов : Front: L R
Частота : 44,1 КГц
Метод сжатия : С потерями
Размер потока : 18,0 Мбайт (32%)
Размер потока оригинала : 18,0 Мбайт (32%)
Язык : English
mdhd_Duration : 995913

Скриншоты:



Яндекс.Метрика
Рейтинг@Mail.ru