Ван Гог не виноват (Вера Яковенко) [2008 г., драма, DVDRip]

 

Создавать темы 04-Июн-2014 02:58

-Ван Гог не виноват-- Производство: Украина
Режиссер: Вера Яковенко
Жанр: драма
Год выпуска: 2008 г.
Продолжительность: 01:28:53
Дата выхода DVD: 16 октября 2008
В ролях: Армен Джигарханян, Алла Фомичева, Михаил Разумовский, Дмитрий Суржиков, Алексей Тритенко, Инна Цымбалюк, Инна Мирошниченко, Ольга Радчук, Александр Фурта-Описание: Сорокапятилетний владелец мебельной фабрики Денис Валевский жестко ведет свой бизнес, ссорится со скучающей супругой и измеряет масштабы окружающей красоты бумажками с портретом Франклина на фасаде. Но неожиданная автокатастрофа выбивает Дениса из привычной колеи – очнувшись в больничной палате, он начинает замечать то, что прежде никогда не привлекало его внимания: форму цветка сирени, рисунок на платье жены, необычный оттенок обоев etc. Увлекшись новыми возможностями своего зрения, Денис начинает интенсивно интересоваться живописью и постепенно запускает все рабочие дела, включая только что полученный выгодный контракт. Денис рисует, заказчики подают в суд, компаньоны отзывают свои деньги, а неслучайно появившаяся молодая художница вносит окончательный сумбур в мир Дениса. И разрушает его до основания.-Сэмпл КиноПоиск
Качество видео: DVDRip
Контейнер: AVI
Видео кодек: XviD
Аудио кодек: MP3
Видео: MPEG-4 Visual at 2069 Кбит/сек: 704 x 400 (1.760) at 25.000 fps, 0.294 Бит/Пиксели
Аудио: MPEG Audio at 128 Кбит/сек : 1 канал, 48,0 КГц
Cубтитры: отсутствуют

Media Info

Общее
Полное имя : D:\уторент\раздачя\Ne_Vinoven.avi
Формат : AVI
Формат/Информация : Audio Video Interleave
Размер файла : 1,37 Гбайт
Продолжительность : 1 ч. 28 м.
Общий поток : 2203 Кбит/сек
Программа кодирования : VirtualDubMod 1.5.4.1 (build 2178/release)
Библиотека кодирования : VirtualDubMod build 2178/release
Видео
Идентификатор : 0
Формат : MPEG-4 Visual
Параметр BVOP формата : 1
Параметр QPel формата : Нет
Параметр GMC формата : Без точки перехода
Параметр матрицы формата : Default (H.263)
Режим смешивания : Сжатый битовый поток
Идентификатор кодека : DX50
Идентификатор кодека/Подсказка : DivX 5
Продолжительность : 1 ч. 28 м.
Битрейт : 2069 Кбит/сек
Ширина : 704 пикселя
Высота : 400 пикселей
Соотношение сторон : 16:9
Частота кадров : 25,000 кадров/сек
Цветовое пространство : YUV
Субдискретизация насыщенности : 4:2:0
Битовая глубина : 8 бит
Тип развёртки : Прогрессивная
Метод сжатия : С потерями
Бит/(Пиксели*Кадры) : 0.294
Размер потока : 1,28 Гбайт (94%)
Библиотека кодирования : DivX 6.7.0 (UTC 2007-09-20)
Аудио
Идентификатор : 1
Формат : MPEG Audio
Версия формата : Version 1
Профиль формата : Layer 3
Идентификатор кодека : 55
Идентификатор кодека/Подсказка : MP3
Продолжительность : 1 ч. 28 м.
Вид битрейта : Постоянный
Битрейт : 128 Кбит/сек
Каналы : 1 канал
Частота : 48,0 КГц
Метод сжатия : С потерями
Размер потока : 80,9 Мбайт (6%)
Выравнивание : Соединение по промежуткам
Продолжительность промежутка : 80 мс. (2,01 видеокадра)
Время предзагрузки промежутка : 504 мс.
Библиотека кодирования : LAME3.97
Настройки программы : -m m -V 4 -q 2 -lowpass 20.5 -b 128
Язык : English

Скриншоты

Яндекс.Метрика
Рейтинг@Mail.ru