Любовь сквозь время / Winter's Tale (Акива Голдсман / Akiva Goldsman) [2014 г., фэнтези, драма, мелодрама, детектив, WEB-DLRip] Dub (Line)

 

Создавать темы 04-Июн-2014 02:11

-Любовь сквозь время / Winter's Tale--«Когда случаются чудеса» Производство: США, Village Roadshow Pictures, Warner Bros., Weed Road Pictures
Год выпуска: 2014 г.
Жанр: фэнтези, драма, мелодрама, детектив
Продолжительность: 01:53:15
Мировая премьера: 10 февраля 2014
Российская премьера: 13 февраля 2014, «Каро-Премьер»
Дата выхода DVD: 17 июля 2014, «CP Дистрибуция»
Дата выхода Blu-Ray: 17 июля 2014, «CP Дистрибуция»
Перевод: Профессиональный (полное дублирование) [Чистый звук]
Режиссер: Акива Голдсман / Akiva Goldsman-В ролях: Колин Фаррелл, Джессика Браун-Финдли, Рассел Кроу, Дженнифер Коннелли, Уилл Смит, Уильям Хёрт, МакКайла Твиггс, Ева Мари Сэйнт, Рипли Собо, Кевин Корригэн-Описание: Действие фильма происходит одновременно в XIX веке и в наше время на Манхэттене. Воришка Питер Лэйк влюбляется в умирающую Беверли Пенн, девушку, живущую в доме, который он только что обчистил. Любовь его может оказаться не только чистой и искренней, но еще и последней, так как по пятам за ним ходят приспешники босса местной мафии, который намеревается прикончить Питера. Однажды, когда гангстерам почти удается отправить паренька на тот свет, его спасает… волшебный белый конь. Спустя некоторое время, удирая от очередной бригады бандитов, конь и его мальчик врезаются в стену из облаков и исчезают на многие годы. Возвращаются они тогда, когда в Нью-Йорке бушует пожар, и Питер обнаруживает в себе качества настоящего Мессии: он видит и слышит то, что недоступно другим; он помнит всех умерших и творит чудеса, достойные самого Спасителя.-Качество видео: WEB-DLRip
Контейнер: AVI
Видео кодек: XviD
Аудио кодек: AC3
Видео: XviD, 720x304 (2.35:1), 1374 kb/s, 23.976 fps, 0.262 bit / pix
Аудио: Rus: 48 kHz, AC 3, 384 kb/s (6 ch) Dub (Line)
Cубтитры: отсутствуют

Media Info

General
Complete name : W:\Winters_Tale.2014.D.WEB-DLRip.1.46Gb.avi
Format : AVI
Format/Info : Audio Video Interleave
File size : 1.46 GiB
Duration : 1h 58mn
Overall bit rate : 1 767 Kbps
Writing application : VirtualDubMod 1.5.10.2 (build 2540/release)
Writing library : VirtualDubMod build 2540/release
Video
ID : 0
Format : MPEG-4 Visual
Format profile : Advanced [email protected]
Format settings, BVOP : Yes
Format settings, QPel : No
Format settings, GMC : No warppoints
Format settings, Matrix : Custom
Codec ID : XVID
Codec ID/Hint : XviD
Duration : 1h 58mn
Bit rate : 1 374 Kbps
Width : 720 pixels
Height : 304 pixels
Display aspect ratio : 2.35:1
Frame rate : 23.976 fps
Color space : YUV
Chroma subsampling : 4:2:0
Bit depth : 8 bits
Scan type : Progressive
Bits/(Pixel*Frame) : 0.262
Stream size : 1.13 GiB (78%)
Writing library : XviD 1.2.1 (UTC 2008-12-04)
Audio
ID : 1
Format : AC-3
Format/Info : Audio Coding 3
Mode extension : CM (complete main)
Codec ID : 2000
Duration : 1h 58mn
Bit rate mode : Constant
Bit rate : 384 Kbps
Channel(s) : 6 channels
Channel positions : Front: L C R, Side: L R, LFE
Sampling rate : 48.0 KHz
Bit depth : 16 bits
Stream size : 324 MiB (22%)
Alignment : Split accross interleaves
Interleave, duration : 42 ms (1.00 video frame)
Interleave, preload duration : 500 ms

Скриншоты

Яндекс.Метрика
Рейтинг@Mail.ru