Лето Дакоты / Dakota's Summer (Тим Армстронг / Tim Armstrong) [2014 г., Драма, семейный, BDRip, 720p] VO (datynet) + Sub (Rus, Eng) + Original (Eng)

 

Создавать темы 04-Июн-2014 02:08

-Лето Дакоты / Dakota's Summer- Производство: США, Sense and Sensibility Ventures
Год выпуска: 2014 г.
Жанр: Драма, семейный
Продолжительность: 01:30:31
Мировая премьера: 4 апреля 2014-Перевод: Любительский (одноголосый, закадровый) [datynet]
Оригинальный аудиопоток: английский-Режиссер: Тим Армстронг / Tim Armstrong
В ролях: Хейли Рэмм, Брайан Дечарт, Глинн Тёрмен, Эмили Бетт Рикардс, Уолт Робертс, Кимберли Уэйлен, Эмбер Даун Лэндрум, Лесли-Энн Хафф, Деррик Стриклэнд-Описание: Дакота Роуз — представительница славного рода ковбоев. Правда, пока у нее хорошо получается только падать с лошади. А ее ровесницы уже показывают сложнейшие акробатические фигуры! И тут выясняется, что родители все эти годы скрывали от Дакоты ужасную правду: они взяли ее из детдома! Теперь у Дакоты две большие задачи: собрать по кусочкам свою жизнь и найти настоящих родителей.-Качество видео: BDRip
Контейнер: MKV
Стандарт разрешения: 720p
Видео кодек: H.264
Аудио кодек: AC3 / DTS
Видео: 1280x688 (1.85:1), 5 398 Kbps, 23.976 fps, 0.256 bit/pix
Аудио: AC3, 192 Kbps, 2 ch, 44.1 KHz [Rus, VO]
Аудио #2: DTS, 1 509 Kbps, 6 ch, 48.0 KHz [Eng, Original]
Cубтитры: Русские, английские
Дополнительно: Сохранены оригинальные чаптеры как на Blu-Ray.

Media Info

General
Unique ID : 225169219223947322787353872122694034963 (0xA96603A1ADB7B8A5BE2AA82721C36613)
Complete name : D:\Dakotas.Summer.2014.BDRip.720p.mkv
Format : Matroska
Format version : Version 4 / Version 2
File size : 4.49 GiB
Duration : 1h 30mn
Overall bit rate : 7 102 Kbps
Encoded date : UTC 2014-05-30 18:35:21
Writing application : mkvmerge v6.9.1 ('Blue Panther') 64bit built on Apr 18 2014 18:23:38
Writing library : libebml v1.3.0 + libmatroska v1.4.1
Video
ID : 1
Format : AVC
Format/Info : Advanced Video Codec
Format profile : [email protected]
Format settings, CABAC : Yes
Format settings, ReFrames : 5 frames
Codec ID : V_MPEG4/ISO/AVC
Duration : 1h 30mn
Bit rate : 5 398 Kbps
Width : 1 280 pixels
Height : 688 pixels
Display aspect ratio : 1.85:1
Frame rate mode : Constant
Frame rate : 23.976 fps
Color space : YUV
Chroma subsampling : 4:2:0
Bit depth : 8 bits
Scan type : Progressive
Bits/(Pixel*Frame) : 0.256
Stream size : 3.33 GiB (74%)
Writing library : x264 core 142 r2431 ac76440
Encoding settings : cabac=1 / ref=5 / deblock=1:0:0 / analyse=0x3:0x133 / me=umh / subme=7 / psy=1 / psy_rd=1.00:0.00 / mixed_ref=1 / me_range=16 / chroma_me=1 / trellis=1 / 8x8dct=1 / cqm=0 / deadzone=21,11 / fast_pskip=0 / chroma_qp_offset=-2 / threads=12 / lookahead_threads=2 / sliced_threads=0 / nr=0 / decimate=1 / interlaced=0 / bluray_compat=0 / constrained_intra=0 / bframes=3 / b_pyramid=2 / b_adapt=2 / b_bias=0 / direct=3 / weightb=1 / open_gop=0 / weightp=2 / keyint=240 / keyint_min=23 / scenecut=40 / intra_refresh=0 / rc_lookahead=50 / rc=2pass / mbtree=1 / bitrate=5398 / ratetol=1.0 / qcomp=0.60 / qpmin=0 / qpmax=69 / qpstep=4 / cplxblur=20.0 / qblur=0.5 / ip_ratio=1.40 / aq=1:1.00
Language : English
Default : Yes
Forced : No
Audio #1
ID : 2
Format : AC-3
Format/Info : Audio Coding 3
Mode extension : CM (complete main)
Format settings, Endianness : Big
Codec ID : A_AC3
Duration : 1h 30mn
Bit rate mode : Constant
Bit rate : 192 Kbps
Channel(s) : 2 channels
Channel positions : Front: L R
Sampling rate : 44.1 KHz
Bit depth : 16 bits
Compression mode : Lossy
Stream size : 124 MiB (3%)
Title : datynet
Language : Russian
Default : Yes
Forced : Yes
Audio #2
ID : 3
Format : DTS
Format/Info : Digital Theater Systems
Mode : 16
Format settings, Endianness : Big
Codec ID : A_DTS
Duration : 1h 30mn
Bit rate mode : Constant
Bit rate : 1 509 Kbps
Channel(s) : 6 channels
Channel positions : Front: L C R, Side: L R, LFE
Sampling rate : 48.0 KHz
Bit depth : 24 bits
Compression mode : Lossy
Stream size : 977 MiB (21%)
Language : English
Default : No
Forced : No
Text #1
ID : 4
Format : UTF-8
Codec ID : S_TEXT/UTF8
Codec ID/Info : UTF-8 Plain Text
Title : М. Васильев
Language : Russian
Default : No
Forced : No
Text #2
ID : 5
Format : UTF-8
Codec ID : S_TEXT/UTF8
Codec ID/Info : UTF-8 Plain Text
Language : English
Default : No
Forced : No
Menu
00:00:00.000 : en:00:00:00.000
00:02:02.289 : en:00:02:02.289
00:06:10.912 : en:00:06:10.912
00:08:45.233 : en:00:08:45.233
00:10:43.268 : en:00:10:43.268
00:13:20.717 : en:00:13:20.717
00:15:55.163 : en:00:15:55.163
00:18:05.209 : en:00:18:05.209
00:21:54.480 : en:00:21:54.480
00:24:50.239 : en:00:24:50.239
00:27:13.715 : en:00:27:13.715
00:30:38.628 : en:00:30:38.628
00:34:16.596 : en:00:34:16.596
00:39:04.050 : en:00:39:04.050
00:41:31.948 : en:00:41:31.948
00:44:34.005 : en:00:44:34.005
00:48:53.973 : en:00:48:53.973
00:52:04.955 : en:00:52:04.955
00:54:24.344 : en:00:54:24.344
00:58:32.634 : en:00:58:32.634
01:01:43.283 : en:01:01:43.283
01:04:30.658 : en:01:04:30.658
01:07:38.721 : en:01:07:38.721
01:11:36.083 : en:01:11:36.083
01:15:41.912 : en:01:15:41.912
01:20:46.383 : en:01:20:46.383
01:24:06.208 : en:01:24:06.208
01:27:21.153 : en:01:27:21.153

Скриншоты

Яндекс.Метрика
Рейтинг@Mail.ru