Мой кузен Винни / My Cousin Vinny (Джонатан Линн /Jonathan Lynn) [1992 г., Комедия, HDTVRip-AVC, 576p] AVO (Гаврилов, Горчаков, Живов)

 

Создавать темы 04-Июн-2014 02:03

Мой кузен Винни / My Cousin Vinny«There have been many courtroom dramas that have glorified The Great American Legal System. This is not one of them.»- Год выпуска: 1992
Страна: США
Жанр: Комедия
Продолжительность: 01:54:19
Перевод: Авторский (одноголосый) Андрей Гаврилов, Василий Горчаков, Юрий Живов
Режиссер: Джонатан Линн / Jonathan Lynn
В ролях: Джо Пеши / Joe Pesci, Ралф Маккио / Ralph Macchio, Мариса Томей / Marisa Tome, Митчелл Уитфилд / Mitchell Whitfield, Фред Гуинн / Fred Gwynne, Лэйн Смит / Lane Smith, Остин Пендлтон / Austin Pendleton, Брюс МакГилл / Bruce McGill, Мори Чайкин / Maury Chaykin, Полин Мейерс / Pauline Meyers
Описание: Джо Пеши очень забавен в роли безнадежно бездарного адвоката-самозванца, пытающегося заявить о себе уже в первом деле. Грубоватого Джо, живущего в Бруклине, вызывает на Юг семья, чтобы он спас их кузена Билла (Маккио), обучающегося в колледже. А грозит Биллу и его дружку Стэну тюрьма - их ошибочно обвинили в убийстве продавца в городке, где они были проездом. Думая, что их обвиняют в мелкой магазинной краже, они подписали признания! Обаятельный неудачник, пародия на адвоката, и его бойкая на язык, но сексапильная подружка Лиза (Томеи) едут в Алабаму, чтобы вытащить эту парочку из беды. Их секретное оружие - способность Винни спорить без устали, что зритель узнает еще по его препираниям с Томеи. Но самым смешным моментом можно назвать сцену, когда Винни не может удержаться и засыпает в зале суда. Томеи, излучающая женский магнетизм, и Маккио испытывают взаимное влечение... За лучшую женскую роль второго плана Мариса Томеи заслуженно получила "Оскар", но я хочу отметить необыкновенно глубокую и нешаблонную игру Пеши. (Иванов М.)
Качество: HDTVRip-AVC
Контейнер: MKV
Видео: 1057 x 576 (16:9)*, x264, [email protected], 25 fps, ~ 2375 Kbps
Audio #1: 48 kHz, AC3 Dolby Digital, 2/0 (L,R) ch, ~192 kbps - Андрей Гаврилов
Audio #2: 48 kHz, AC3 Dolby Digital, 2/0 (L,R) ch, ~192 kbps - Василий Горчаков
Audio #3: 48 kHz, AC3 Dolby Digital, 2/0 (L,R) ch, ~192 kbps - Юрий Живов
* - История. Исходник HDTV был не найден. После кодирования с HDTVRip 720p, при сравнении с BD, был замечен не правильный АР. После долгих ползаний по скринам с линейкой, измеряя баскетбольный мячик http://screenshotcomparison.com/comparison/77406 и т.п. , выяснилось, что по горизонтали должно было быть 1057 пикселов. Не считая нужным перекодировать, пока не найду HDTV 1080i, пересобрал контейнер, принудительно выставив правильный АР. В результате имеем1057х576. Почему просто не сделал BDRip-AVC? Ответ здесь (скрины с этого рипа, приведенные к 1280рх).

Награды

Оскар, 1993 год
Победитель (1):
Лучшая женская роль второго плана (Мариса Томей)
Премия канала «MTV», 1993 год
Победитель (1):
Прорыв года (Мариса Томей)
Номинации (1):
Лучшая комедийная роль (Джо Пеши)

h.264 log

avs [info]: 1024x576p 1:1 @ 25/1 fps (cfr)
x264 [info]: using SAR=1/1
x264 [info]: using cpu capabilities: MMX2 SSE2Slow SlowCTZ
x264 [info]: profile High, level 4.1
x264 [info]: frame I:1559 Avg QP:16.69 size: 90814
x264 [info]: frame P:37082 Avg QP:19.83 size: 27456
x264 [info]: frame B:132861 Avg QP:23.51 size: 6599
x264 [info]: consecutive B-frames: 1.3% 1.1% 5.5% 36.2% 24.7% 20.2% 5.8% 3.5% 1.1% 0.5%
x264 [info]: mb I I16..4: 3.2% 75.0% 21.9%
x264 [info]: mb P I16..4: 1.4% 13.4% 2.0% P16..4: 30.7% 33.5% 12.4% 2.5% 0.3% skip: 3.8%
x264 [info]: mb B I16..4: 0.2% 1.7% 0.1% B16..8: 34.7% 18.4% 2.4% direct: 5.1% skip:37.4% L0:40.6% L1:45.7% BI:13.8%
x264 [info]: 8x8 transform intra:79.7% inter:61.1%
x264 [info]: coded y,uvDC,uvAC intra: 82.5% 71.7% 36.4% inter: 21.1% 15.1% 0.8%
x264 [info]: i16 v,h,dc,p: 17% 16% 4% 63%
x264 [info]: i8 v,h,dc,ddl,ddr,vr,hd,vl,hu: 13% 10% 7% 8% 11% 13% 12% 13% 15%
x264 [info]: i4 v,h,dc,ddl,ddr,vr,hd,vl,hu: 17% 12% 5% 7% 13% 13% 11% 11% 11%
x264 [info]: i8c dc,h,v,p: 29% 29% 23% 18%
x264 [info]: Weighted P-Frames: Y:1.8% UV:0.9%
x264 [info]: ref P L0: 45.7% 11.8% 22.0% 5.6% 5.8% 3.3% 3.7% 1.9% 0.1% 0.0%
x264 [info]: ref B L0: 82.0% 10.3% 3.7% 1.8% 1.2% 0.7% 0.3%
x264 [info]: ref B L1: 94.5% 5.5%
x264 [info]: kb/s:2374.80

MI

Общее
Уникальный идентификатор : 199785162601320929859726568361733373538 (0x964D390382AEE1F9BDA6874F4953BE62)
Полное имя : H:\Мои документы\Кинофильмы\Кино\My Cousin Vinny.HDTVRip.x264.Gavrilov.Gorchakov.Zhivov.fix.mkv
Формат : Matroska
Версия формата : Version 4 / Version 2
Размер файла : 2,36 Гбайт
Продолжительность : 1 ч. 54 м.
Общий поток : 2953 Кбит/сек
Название фильма : My Cousin Vinny.HDTVRip.x264.Gavrilov.Gorchakov.Zhivov -=anton966=-
Дата кодирования : UTC 2014-06-03 04:40:57
Программа кодирования : mkvmerge v6.9.1 ('Blue Panther') 32bit built on Apr 18 2014 18:15:44
Библиотека кодирования : libebml v1.3.0 + libmatroska v1.4.1
Видео
Идентификатор : 1
Формат : AVC
Формат/Информация : Advanced Video Codec
Профиль формата : [email protected]
Параметр CABAC формата : Да
Параметр ReFrames формата : 8 кадров
Идентификатор кодека : V_MPEG4/ISO/AVC
Продолжительность : 1 ч. 54 м.
Битрейт : 2318 Кбит/сек
Ширина : 1057 пикселя
Высота : 576 пикселей
Соотношение сторон : 1,85:1
Соотношение сторон в оригинале : 16:9
Режим частоты кадров : Постоянный
Частота кадров : 25,000 кадров/сек
Цветовое пространство : YUV
Субдискретизация насыщенности : 4:2:0
Битовая глубина : 8 бит
Тип развёртки : Прогрессивная
Бит/(Пиксели*Кадры) : 0.157
Размер потока : 1,85 Гбайт (79%)
Заголовок : My Cousin Vinny.HDTVRip 1024x576
Библиотека кодирования : x264 core 142 r2431 ac76440
Настройки программы : cabac=1 / ref=8 / deblock=1:-1:-1 / analyse=0x3:0x133 / me=umh / subme=11 / psy=1 / psy_rd=0.95:0.15 / mixed_ref=1 / me_range=24 / chroma_me=1 / trellis=2 / 8x8dct=1 / cqm=0 / deadzone=21,11 / fast_pskip=0 / chroma_qp_offset=-3 / threads=3 / lookahead_threads=1 / sliced_threads=0 / nr=0 / decimate=1 / interlaced=0 / bluray_compat=0 / constrained_intra=0 / bframes=9 / b_pyramid=2 / b_adapt=2 / b_bias=0 / direct=1 / weightb=1 / open_gop=0 / weightp=2 / keyint=240 / keyint_min=24 / scenecut=40 / intra_refresh=0 / rc_lookahead=50 / rc=crf / mbtree=1 / crf=18.4 / qcomp=0.60 / qpmin=0 / qpmax=69 / qpstep=4 / ip_ratio=1.40 / aq=2:1.00
Язык : English
Default : Да
Forced : Нет
Аудио #1
Идентификатор : 2
Формат : AC-3
Формат/Информация : Audio Coding 3
Расширение режима : CM (complete main)
Параметр Endianness формата : Big
Идентификатор кодека : A_AC3
Продолжительность : 1 ч. 54 м.
Вид битрейта : Постоянный
Битрейт : 192 Кбит/сек
Каналы : 2 канала
Расположение каналов : Front: L R
Частота : 48,0 КГц
Битовая глубина : 16 бит
Метод сжатия : С потерями
Размер потока : 157 Мбайт (7%)
Заголовок : Gavrilov
Язык : Russian
Default : Да
Forced : Нет
Аудио #2
Идентификатор : 3
Формат : AC-3
Формат/Информация : Audio Coding 3
Расширение режима : CM (complete main)
Параметр Endianness формата : Big
Идентификатор кодека : A_AC3
Продолжительность : 1 ч. 54 м.
Вид битрейта : Постоянный
Битрейт : 192 Кбит/сек
Каналы : 2 канала
Расположение каналов : Front: L R
Частота : 48,0 КГц
Битовая глубина : 16 бит
Метод сжатия : С потерями
Размер потока : 157 Мбайт (7%)
Заголовок : Gorchakov
Язык : Russian
Default : Нет
Forced : Нет
Аудио #3
Идентификатор : 4
Формат : AC-3
Формат/Информация : Audio Coding 3
Расширение режима : CM (complete main)
Параметр Endianness формата : Big
Идентификатор кодека : A_AC3
Продолжительность : 1 ч. 54 м.
Вид битрейта : Постоянный
Битрейт : 192 Кбит/сек
Каналы : 2 канала
Расположение каналов : Front: L R
Частота : 48,0 КГц
Битовая глубина : 16 бит
Метод сжатия : С потерями
Размер потока : 157 Мбайт (7%)
Заголовок : Zhivov
Язык : Russian
Default : Нет
Forced : Нет

Скриншоты

Яндекс.Метрика
Рейтинг@Mail.ru