Незваные гости (Оккупанты) / The Occupants (Тодд Элкотт / Todd Alcott) [2014 г., Триллер, ужасы, BDRip, 720p] VO (datynet) + Sub (Eng) + Original (Eng)

 

Создавать темы 03-Июн-2014 02:08

-Незваные гости (Оккупанты) / The Occupants- Производство: США, Blood Relative Productions
Год выпуска: 2014 г.
Жанр: Триллер, ужасы
Продолжительность: 01:19:23
Мировая премьера: 13 января 2014-Перевод: Любительский (одноголосый, закадровый) [datynet]
Оригинальный аудиопоток: английский-Режиссер: Тодд Элкотт / Todd Alcott
В ролях: Кристен Ариза, Ашанти Браун, Мэйси Кратед, Мэри Пэт Фаррелл, Гэйл Голден, Тоби Хасс, Кэтрин Кэми, Кристин Милиоти-Описание: У Люси есть муж, новый дом и ребенок, но старые призраки не позволяют ей жить. Она пытается помочь душам освободиться от мучений и двигаться дальше, но вскоре обнаруживает, что призраки не хотят ее помощи.-Качество видео: BDRip
Контейнер: MKV
Стандарт разрешения: 720p
Видео кодек: H.264
Аудио кодек: AC3 / DTS
Видео: 1280x720 (16:9), 4 430 Kbps, 23.976 fps, 0.200 bit/pix
Аудио: AC3, 192 Kbps, 2 ch, 44.1 KHz [Rus, VO]
Аудио #2: DTS, 1 509 Kbps, 6 ch, 48.0 KHz [Eng, Original]
Cубтитры: английские

Media Info

General
Unique ID : 233864255584611588223070813574095011231 (0xAFF09E05BFC0D63A800D874A73D17D9F)
Complete name : D:\The.Occupants.2014.BDRip.720p.mkv
Format : Matroska
Format version : Version 4 / Version 2
File size : 3.38 GiB
Duration : 1h 18mn
Overall bit rate : 6 132 Kbps
Encoded date : UTC 2014-05-28 11:05:55
Writing application : mkvmerge v6.9.1 ('Blue Panther') 64bit built on Apr 18 2014 18:23:38
Writing library : libebml v1.3.0 + libmatroska v1.4.1
Video
ID : 1
Format : AVC
Format/Info : Advanced Video Codec
Format profile : [email protected]
Format settings, CABAC : Yes
Format settings, ReFrames : 5 frames
Codec ID : V_MPEG4/ISO/AVC
Duration : 1h 18mn
Bit rate : 4 430 Kbps
Width : 1 280 pixels
Height : 720 pixels
Display aspect ratio : 16:9
Frame rate mode : Constant
Frame rate : 23.976 fps
Color space : YUV
Chroma subsampling : 4:2:0
Bit depth : 8 bits
Scan type : Progressive
Bits/(Pixel*Frame) : 0.200
Stream size : 2.38 GiB (70%)
Writing library : x264 core 142 r2431 ac76440
Encoding settings : cabac=1 / ref=5 / deblock=1:0:0 / analyse=0x3:0x113 / me=umh / subme=7 / psy=1 / psy_rd=1.00:0.00 / mixed_ref=1 / me_range=16 / chroma_me=1 / trellis=1 / 8x8dct=1 / cqm=0 / deadzone=21,11 / fast_pskip=0 / chroma_qp_offset=-2 / threads=12 / lookahead_threads=2 / sliced_threads=0 / nr=0 / decimate=1 / interlaced=0 / bluray_compat=0 / constrained_intra=0 / bframes=3 / b_pyramid=2 / b_adapt=2 / b_bias=0 / direct=3 / weightb=1 / open_gop=0 / weightp=2 / keyint=250 / keyint_min=23 / scenecut=40 / intra_refresh=0 / rc_lookahead=50 / rc=2pass / mbtree=1 / bitrate=4430 / ratetol=1.0 / qcomp=0.60 / qpmin=0 / qpmax=69 / qpstep=4 / cplxblur=20.0 / qblur=0.5 / ip_ratio=1.40 / aq=1:1.00
Default : Yes
Forced : No
Audio #1
ID : 2
Format : AC-3
Format/Info : Audio Coding 3
Mode extension : CM (complete main)
Format settings, Endianness : Big
Codec ID : A_AC3
Duration : 1h 18mn
Bit rate mode : Constant
Bit rate : 192 Kbps
Channel(s) : 2 channels
Channel positions : Front: L R
Sampling rate : 44.1 KHz
Bit depth : 16 bits
Compression mode : Lossy
Stream size : 108 MiB (3%)
Title : datynet
Language : Russian
Default : Yes
Forced : Yes
Audio #2
ID : 3
Format : DTS
Format/Info : Digital Theater Systems
Mode : 16
Format settings, Endianness : Big
Codec ID : A_DTS
Duration : 1h 18mn
Bit rate mode : Constant
Bit rate : 1 509 Kbps
Channel(s) : 6 channels
Channel positions : Front: L C R, Side: L R, LFE
Sampling rate : 48.0 KHz
Bit depth : 24 bits
Compression mode : Lossy
Stream size : 853 MiB (25%)
Language : English
Default : No
Forced : No
Text
ID : 4
Format : UTF-8
Codec ID : S_TEXT/UTF8
Codec ID/Info : UTF-8 Plain Text
Language : English
Default : No
Forced : No

Скриншоты

Яндекс.Метрика
Рейтинг@Mail.ru