[ Сегодня на трекере фрилич! Идет свободное скачивание без начисления Download ]

Гиперболоид инженера Гарина (Александр Гинцбург) [1965 г., фантастика, DVDRip]

 

Создавать темы 02-Июн-2014 20:16

-Гиперболоид инженера Гарина-- Производство: СССР, киностудия им. Горького
Режиссер: Александр Гинцбург
Жанр: фантастика
Год выпуска: 1965 г.
Продолжительность: 01:31:00
В ролях: Евгений Евстигнеев, Всеволод Сафонов, Михаил Астангов, Валентин Брылеев, Николай Бубнов, Вячеслав Гостинский, Владимир Дружников, Артем Карапетян, Константин Карельских, Наталья Климова, Степан Крылов, Михаил Кузнецов, Бруно Оя, Анатолий Ромашин, Юрий Саранцев, Алеша Ушаков, Виктор Чекмарев, Павел Шпрингфельд-Описание: 1925 год. Профессор Манцев изобрел оружие небывалой разрушительной силы — гиперболоид, наносящий страшные удары лучом. Инженер Гарин крадет этот прототип лазерной пушки и решает использовать для безумной идеи - стать правителем мира…-Качество видео: DVDRip
Контейнер: AVI
Видео кодек: XviD
Аудио кодек: AC3
Видео: 704x368; 1692 kbps; 25 fps; 0.261 bit/pixel
Аудио: 448 kbps; 6 ch; 48 kHz
Cубтитры: отсутствуют

Награды

Главная премия «Золотая печать города Триеста» на МКФ фантастических фильмов в Триесте (Италия) (1966 г.)

Media Info

General
Complete name : E:\Torrent\Giperboloid_inzhenera_Garina_[Pirat.ca].torrent.avi
Format : AVI
Format/Info : Audio Video Interleave
File size : 1.37 GiB
Duration : 1h 31mn
Overall bit rate : 2 150 Kbps
Writing application : VirtualDubModRus 1.5.10.2 (build 2542/release)
Writing library : VirtualDubMod build 2542/release
Video
ID : 0
Format : MPEG-4 Visual
Format profile : Advanced [email protected]
Format settings, BVOP : 2
Format settings, QPel : No
Format settings, GMC : No warppoints
Format settings, Matrix : Default (MPEG)
Muxing mode : Packed bitstream
Codec ID : XVID
Codec ID/Hint : XviD
Duration : 1h 31mn
Bit rate : 1 692 Kbps
Width : 704 pixels
Height : 368 pixels
Display aspect ratio : 1.913
Frame rate : 25.000 fps
Color space : YUV
Chroma subsampling : 4:2:0
Bit depth : 8 bits
Scan type : Progressive
Compression mode : Lossy
Bits/(Pixel*Frame) : 0.261
Stream size : 1.08 GiB (79%)
Writing library : XviD 1.2.1 (UTC 2008-12-04)
Audio
ID : 1
Format : AC-3
Format/Info : Audio Coding 3
Mode extension : CM (complete main)
Format settings, Endianness : Big
Codec ID : 2000
Duration : 1h 31mn
Bit rate mode : Constant
Bit rate : 448 Kbps
Channel(s) : 6 channels
Channel positions : Front: L C R, Side: L R, LFE
Sampling rate : 48.0 KHz
Bit depth : 16 bits
Compression mode : Lossy
Stream size : 292 MiB (21%)
Alignment : Aligned on interleaves
Interleave, duration : 40 ms (1.00 video frame)
Interleave, preload duration : 512 ms

Скриншоты

Раздача

Раздача с 14.00 до 2.30 (время московское)
Яндекс.Метрика
Рейтинг@Mail.ru