[ Сегодня на трекере фрилич! Идет свободное скачивание без начисления Download ]

В пасти безумия / In The Mouth Of Madness (Джон Карпентер),[1994, Ужасы, фэнтези, триллер, детектив, BDRip-AVC ]

 

Создавать темы 19-Окт-2013 04:37

Информация о фильме
Название: В пасти безумия
Оригинальное название: In The Mouth Of Madness
Год выхода: 1994
Жанр: Ужасы, фэнтези, триллер, детектив
Режиссер: Джон Карпентер
В ролях: Сэм Нилл, Джули Кармен, Юрген Прохнов, Дэвид Уорнер, Джон Гловер, Берни Кейси, Питер Джейсон, Чарлтон Хестон, Фрэнсис Бэй, Вильгельм фон Хомбург
О фильме:
В центре фильма мрачная мистическая история о пропавшем писателе, написавшем книгу - бестселлер, прочитав которую, люди сходят с ума. Писателя разыскивает частный детектив, и поиски приводят его в город, описанный в книге, но отсутствующий на карте…

Страна: США / New Line Cinema
Продолжительность: 01:35:22
Перевод: Профессиональный многоголосый, профессиональный двухголосый, авторский одноголосый
Файл
Кодек: x264
Качество: BDRip (AVC)
Видео: MPEG-4 AVC, 2200 Кбит/с, 1024x426, 23.976 кадр/с
Аудио #1: Русский (AC3, 2 ch, 192 Кбит/с) / Профессиональный многоголосый (НТВ)
Аудио #2: Русский (AC3, 6 ch, 448 Кбит/с) / Профессиональный двухголосый (Инис / Союз Видео)
Аудио #3: Русский (AC3, 6 ch, 448 Кбит/с) / Авторский одноголосый (А. Гаврилов)
Аудио #4: Русский (AC3, 2 ch, 192 Кбит/с) / Авторский одноголосый (Ю. Сербин)
Аудио #5: Английский (AC3, 6 ch, 448 Кбит/с)
Субтитры: Русские, английские

MI

Format : Matroska
Format version : Version 4 / Version 2
File size : 2.62 GiB
Duration : 1h 35mn
Overall bit rate : 3 931 Kbps
Movie name : -=MediaClub-Odessit=-
Encoded date : UTC 2013-10-18 18:57:35
Writing application : mkvmerge v6.2.0 ('Promised Land') built on Apr 28 2013 12:22:01
Writing library : libebml v1.3.0 + libmatroska v1.4.0
Video
ID : 1
Format : AVC
Format/Info : Advanced Video Codec
Format profile : [email protected]
Format settings, CABAC : Yes
Format settings, ReFrames : 9 frames
Codec ID : V_MPEG4/ISO/AVC
Duration : 1h 35mn
Bit rate : 2 200 Kbps
Width : 1 024 pixels
Height : 426 pixels
Display aspect ratio : 2.40:1
Frame rate : 23.976 fps
Color space : YUV
Chroma subsampling : 4:2:0
Bit depth : 8 bits
Scan type : Progressive
Bits/(Pixel*Frame) : 0.210
Stream size : 1.42 GiB (54%)
Writing library : x264 core 133 r2334 a3ac64b
Encoding settings : cabac=1 / ref=9 / deblock=1:-3:-3 / analyse=0x3:0x133 / me=umh / subme=11 / psy=1 / psy_rd=1.00:0.20 / mixed_ref=1 / me_range=48 / chroma_me=1 / trellis=2 / 8x8dct=1 / cqm=0 / deadzone=21,11 / fast_pskip=0 / chroma_qp_offset=-3 / threads=6 / lookahead_threads=1 / sliced_threads=0 / nr=0 / decimate=0 / interlaced=0 / bluray_compat=0 / constrained_intra=0 / bframes=9 / b_pyramid=2 / b_adapt=2 / b_bias=0 / direct=3 / weightb=1 / open_gop=0 / weightp=2 / keyint=240 / keyint_min=23 / scenecut=40 / intra_refresh=0 / rc=2pass / mbtree=0 / bitrate=2200 / ratetol=1.0 / qcomp=0.60 / qpmin=0 / qpmax=69 / qpstep=4 / cplxblur=20.0 / qblur=0.5 / ip_ratio=1.40 / pb_ratio=1.30 / aq=1:1.00
Language : English
Color primaries : BT.709-5, BT.1361, IEC 61966-2-4, SMPTE RP177
Transfer characteristics : BT.709-5, BT.1361
Matrix coefficients : BT.709-5, BT.1361, IEC 61966-2-4 709, SMPTE RP177
Audio #1
ID : 2
Format : AC-3
Format/Info : Audio Coding 3
Mode extension : CM (complete main)
Codec ID : A_AC3
Duration : 1h 35mn
Bit rate mode : Constant
Bit rate : 192 Kbps
Channel(s) : 2 channels
Channel positions : Front: L R
Sampling rate : 48.0 KHz
Bit depth : 16 bits
Compression mode : Lossy
Stream size : 131 MiB (5%)
Title : (НТВ)
Language : Russian
Audio #2
ID : 3
Format : AC-3
Format/Info : Audio Coding 3
Mode extension : CM (complete main)
Codec ID : A_AC3
Duration : 1h 35mn
Bit rate mode : Constant
Bit rate : 448 Kbps
Channel(s) : 6 channels
Channel positions : Front: L C R, Side: L R, LFE
Sampling rate : 48.0 KHz
Bit depth : 16 bits
Compression mode : Lossy
Stream size : 306 MiB (11%)
Title : (Инис / Союз Видео)
Language : Russian
Audio #3
ID : 4
Format : AC-3
Format/Info : Audio Coding 3
Mode extension : CM (complete main)
Codec ID : A_AC3
Duration : 1h 35mn
Bit rate mode : Constant
Bit rate : 448 Kbps
Channel(s) : 6 channels
Channel positions : Front: L C R, Side: L R, LFE
Sampling rate : 48.0 KHz
Bit depth : 16 bits
Compression mode : Lossy
Stream size : 306 MiB (11%)
Title : (А. Гаврилов)
Language : Russian
Audio #4
ID : 5
Format : AC-3
Format/Info : Audio Coding 3
Mode extension : CM (complete main)
Codec ID : A_AC3
Duration : 1h 35mn
Bit rate mode : Constant
Bit rate : 192 Kbps
Channel(s) : 2 channels
Channel positions : Front: L R
Sampling rate : 48.0 KHz
Bit depth : 16 bits
Compression mode : Lossy
Stream size : 131 MiB (5%)
Title : (Ю. Сербин)
Language : Russian
Audio #5
ID : 6
Format : AC-3
Format/Info : Audio Coding 3
Mode extension : CM (complete main)
Codec ID : A_AC3
Duration : 1h 35mn
Bit rate mode : Constant
Bit rate : 448 Kbps
Channel(s) : 6 channels
Channel positions : Front: L C R, Side: L R, LFE
Sampling rate : 48.0 KHz
Bit depth : 16 bits
Compression mode : Lossy
Stream size : 306 MiB (11%)
Language : English
Text #1
ID : 7
Format : UTF-8
Codec ID : S_TEXT/UTF8
Codec ID/Info : UTF-8 Plain Text
Title : RUSSIAN
Language : Russian
Text #2
ID : 8
Format : UTF-8
Codec ID : S_TEXT/UTF8
Codec ID/Info : UTF-8 Plain Text
Title : ENG
Language : English

x264 log

x264 [info]:I:990 Avg QP:15.09 size: 64894
x264 [info]: frame P:28311 Avg QP:17.77 size: 23425
x264 [info]: frame B:107909 Avg QP:19.13 size: 7843

Скриншоты

Релиз от:
Яндекс.Метрика
Рейтинг@Mail.ru