(Progressive Rock/Art Rock) [CD] INSOMNIA VERA - Silentium - 2013, FLAC (tracks+.cue), lossless

 

Создавать темы 02-Июн-2014 20:05

INSOMNIA VERA / Silentium
Жанр: Progressive Rock/Art Rock
Носитель: CD
Страна-производитель диска: Литва
Год издания: 2013
Страна: Литва
Аудиокодек: FLAC (*.flac)
Тип рипа: tracks+.cue
Битрейт аудио: lossless
Продолжительность: 01:00:37
Источник (релизер): Собственный CD
Наличие сканов в содержимом раздачи: да

Треклист

1 Run
2 When the Rain Is Over
3 Young Poet's Dream
4 The Pendulum
5 Silentium
6 For You
7 All Things Must Pass? This Doesn't Apply to Rocknroll!
8 The Power of Time
9 Legaly Protected
10 Ramuma
11 Aurora Polaris
12 Rise and Shine

Лог создания рипа

Exact Audio Copy V1.0 beta 3 from 29. August 2011
EAC extraction logfile from 2. June 2014, 18:40
INSOMNIA VERA / Silentium
Used drive : TSSTcorpDVDWBD SN-406AB Adapter: 0 ID: 0
Read mode : SecureUtilize accurate stream : YesDefeat audio cache : YesMake use of C2 pointers : No
Read offset correction : 6Overread into Lead-In and Lead-Out : NoFill up missing offset samples with silence : YesDelete leading and trailing silent blocks : NoNull samples used in CRC calculations : YesUsed interface : Native Win32 interface for Win NT & 2000Gap handling : Appended to previous track
Used output format : User Defined EncoderSelected bitrate : 128 kBit/sQuality : HighAdd ID3 tag : NoCommand line compressor : C:\Program Files (x86)\Exact Audio Copy\Flac\flac.exeAdditional command line options : -V -8 -T "Date=%year%" -T "Genre=%genre%" %source%
TOC of the extracted CD
Track | Start | Length | Start sector | End sector --------------------------------------------------------- 1 | 0:00.00 | 6:09.56 | 0 | 27730 2 | 6:09.56 | 4:44.37 | 27731 | 49067 3 | 10:54.18 | 6:50.02 | 49068 | 79819 4 | 17:44.20 | 4:41.73 | 79820 | 100967 5 | 22:26.18 | 3:34.56 | 100968 | 117073 6 | 26:00.74 | 5:08.27 | 117074 | 140200 7 | 31:09.26 | 3:40.55 | 140201 | 156755 8 | 34:50.06 | 5:56.46 | 156756 | 183501 9 | 40:46.52 | 3:56.54 | 183502 | 201255 10 | 44:43.31 | 3:38.41 | 201256 | 217646 11 | 48:21.72 | 4:57.03 | 217647 | 239924 12 | 53:19.00 | 7:18.24 | 239925 | 272798
Track 1
Filename C:\INSOMNIA VERA - Silentium (2013)\01 Run.wav
Pre-gap length 0:00:02.00
Peak level 99.1 % Extraction speed 1.5 X Track quality 99.9 % Test CRC 195C816F Copy CRC 195C816F Copy OK
Track 2
Filename C:\INSOMNIA VERA - Silentium (2013)\02 When the Rain is Over.wav
Pre-gap length 0:00:01.56
Peak level 98.8 % Extraction speed 1.3 X Track quality 99.9 % Test CRC D7635419 Copy CRC D7635419 Copy OK
Track 3
Filename C:\INSOMNIA VERA - Silentium (2013)\03 Young Poet's Dream.wav
Pre-gap length 0:00:01.56
Peak level 99.1 % Extraction speed 1.8 X Track quality 99.9 % Test CRC BCEFA8EE Copy CRC BCEFA8EE Copy OK
Track 4
Filename C:\INSOMNIA VERA - Silentium (2013)\04 The Pendulum.wav
Pre-gap length 0:00:01.57
Peak level 98.9 % Extraction speed 1.5 X Track quality 99.9 % Test CRC 4A5BC89A Copy CRC 4A5BC89A Copy OK
Track 5
Filename C:\INSOMNIA VERA - Silentium (2013)\05 Silentium.wav
Pre-gap length 0:00:01.57
Peak level 100.0 % Extraction speed 2.4 X Track quality 100.0 % Test CRC 4B903ACC Copy CRC 4B903ACC Copy OK
Track 6
Filename C:\INSOMNIA VERA - Silentium (2013)\06 For You.wav
Pre-gap length 0:00:01.56
Peak level 99.0 % Extraction speed 2.7 X Track quality 99.9 % Test CRC 7147CEDB Copy CRC 7147CEDB Copy OK
Track 7
Filename C:\INSOMNIA VERA - Silentium (2013)\07 All Things Must Pass This Doesn't Apply to Rockroll!.wav
Pre-gap length 0:00:01.57
Peak level 99.0 % Extraction speed 3.3 X Track quality 99.9 % Test CRC CFEC972C Copy CRC CFEC972C Copy OK
Track 8
Filename C:\INSOMNIA VERA - Silentium (2013)\08 The Power of Time.wav
Pre-gap length 0:00:01.56
Peak level 99.4 % Extraction speed 4.7 X Track quality 100.0 % Test CRC 16482599 Copy CRC 16482599 Copy OK
Track 9
Filename C:\INSOMNIA VERA - Silentium (2013)\09 Legally Protected.wav
Pre-gap length 0:00:01.59
Peak level 98.8 % Extraction speed 2.0 X Track quality 99.9 % Test CRC 43263632 Copy CRC 43263632 Copy OK
Track 10
Filename C:\INSOMNIA VERA - Silentium (2013)\10 Ramuma.wav
Pre-gap length 0:00:01.57
Peak level 98.9 % Extraction speed 4.5 X Track quality 100.0 % Test CRC EC224C41 Copy CRC EC224C41 Copy OK
Track 11
Filename C:\INSOMNIA VERA - Silentium (2013)\11 Aurora Polaris.wav
Pre-gap length 0:00:01.55
Peak level 98.8 % Extraction speed 3.0 X Track quality 99.9 % Test CRC 155701BD Copy CRC 155701BD Copy OK
Track 12
Filename C:\INSOMNIA VERA - Silentium (2013)\12 Rise and Shine.wav
Pre-gap length 0:00:01.01
Peak level 98.9 % Extraction speed 3.9 X Track quality 99.9 % Test CRC 637A6788 Copy CRC 637A6788 Copy OK
No errors occurred
End of status report
==== Log checksum A17914BB515B54F9599CBE4D531CC7311047AC87DBA420A75AD157435A74A911 ====

Содержание индексной карты (.CUE)

REM GENRE "Progressive Rock"REM DATE 2013REM DISCID A20E350CREM COMMENT "ExactAudioCopy v1.0b3"PERFORMER "INSOMNIA VERA"TITLE "Silentium"FILE "01 Run.wav" WAVE TRACK 01 AUDIO TITLE "Run" PERFORMER "INSOMNIA VERA" INDEX 01 00:00:00 TRACK 02 AUDIO TITLE "When the Rain is Over" PERFORMER "INSOMNIA VERA" INDEX 00 06:08:00FILE "02 When the Rain is Over.wav" WAVE INDEX 01 00:00:00 TRACK 03 AUDIO TITLE "Young Poet's Dream" PERFORMER "INSOMNIA VERA" INDEX 00 04:42:56FILE "03 Young Poet's Dream.wav" WAVE INDEX 01 00:00:00 TRACK 04 AUDIO TITLE "The Pendulum" PERFORMER "INSOMNIA VERA" INDEX 00 06:48:20FILE "04 The Pendulum.wav" WAVE INDEX 01 00:00:00 TRACK 05 AUDIO TITLE "Silentium" PERFORMER "INSOMNIA VERA" INDEX 00 04:40:16FILE "05 Silentium.wav" WAVE INDEX 01 00:00:00 TRACK 06 AUDIO TITLE "For You " PERFORMER "INSOMNIA VERA" INDEX 00 03:33:00FILE "06 For You.wav" WAVE INDEX 01 00:00:00 TRACK 07 AUDIO TITLE "All Things Must Pass? This Doesn't Apply to Rockroll!" PERFORMER "INSOMNIA VERA" INDEX 00 05:06:45FILE "07 All Things Must Pass This Doesn't Apply to Rockroll!.wav" WAVE INDEX 01 00:00:00 TRACK 08 AUDIO TITLE "The Power of Time" PERFORMER "INSOMNIA VERA" INDEX 00 03:38:74FILE "08 The Power of Time.wav" WAVE INDEX 01 00:00:00 TRACK 09 AUDIO TITLE "Legally Protected" PERFORMER "INSOMNIA VERA" INDEX 00 05:54:62FILE "09 Legally Protected.wav" WAVE INDEX 01 00:00:00 TRACK 10 AUDIO TITLE "Ramuma" PERFORMER "INSOMNIA VERA" INDEX 00 03:54:72FILE "10 Ramuma.wav" WAVE INDEX 01 00:00:00 TRACK 11 AUDIO TITLE "Aurora Polaris" PERFORMER "INSOMNIA VERA" INDEX 00 03:36:61FILE "11 Aurora Polaris.wav" WAVE INDEX 01 00:00:00 TRACK 12 AUDIO TITLE "Rise and Shine" PERFORMER "INSOMNIA VERA" INDEX 00 04:56:02FILE "12 Rise and Shine.wav" WAVE INDEX 01 00:00:00

Яндекс.Метрика
Рейтинг@Mail.ru