[ Сегодня на трекере фрилич! Идет свободное скачивание без начисления Download ]

Эволюция / Evolution (2001) [D-TheaterRip-AVC] DUB

 

Создавать темы 02-Июн-2014 15:21

-Год выпуска: 2001
Страна: США
Жанр: фантастика, комедия
Продолжительность: 01:41:57
Перевод: Полное дублирование
Субтитры: Нет-В ролях: Дэвид Духовны, Джулианна Мур, Орландо Джонс, Шонн Уильям Скотт, Тед Левайн, Этан Сапли, Майкл Бауэр, Пэт Килбейн, Ти Баррелл, Дэн Эйкройд, Кэтрин Таун, Грегори Итцин, Эшли Кларк, Мишель Фолфф, Сара Силверман, Майкл МакГрэйди
Режиссёр: Айвен Райтман-Описание: Каньон Глен, Аризона, наши дни. Готовясь к экзамену в школе пожарных, Уэйн проводит ночь в пустыне и становится свидетелем падения метеорита. На следующий день учитель биологии доктор Айра Кейн и учитель геологии Гарри Блок пробираются в пещеру, к месту падения. Они берут пробу странной голубой жидкости, вытекшей из метеорита.
Позднее, изучая жидкость под микроскопом, Айра Кейн с удивлением обнаруживает мириады живых одноклеточных организмов, которые начинают с бешеной скоростью развиваться прямо у него на глазах! Дело пахнет Нобелевской премией за научное открытие, но оборачивается настоящим кошмаром для всего человечества. Эволюция продолжает набирать обороты: на Землю возвращаются динозавры, и появляются ранее невиданные формы жизни…-Исходник: D-Theater 1080i
Качество: D-TheaterRip-AVC
Формат: MKV
Видео кодек: AVC
Аудио кодек: AC3
Видео: 1024x576, 2608 kbps, 23,970 fps, 0,148 Bits/(Pixel*Frame)
Аудио: AC3, 48 kHz, 448 kbps, 6 ch-

Скриншоты:

MediaInfo

General
Unique ID : 199954113838892132494696845094257187825 (0x966DC2F3EE089F4990529A164C245BF1)
Complete name : G:RipEvolution.2001.D-ThererRip-AVC_by_Bathory.mkv
Format : Matroska
Format version : Version 2
File size : 2.18 GiB
Duration : 1h 41mn
Overall bit rate : 3 057 Kbps
Encoded date : UTC 2014-06-01 17:00:29
Writing application : mkvmerge v6.5.0 ('Isn't she lovely') built on Oct 20 2013 12:50:05
Writing library : libebml v1.3.0 + libmatroska v1.4.1
Video
ID : 1
Format : AVC
Format/Info : Advanced Video Codec
Format profile : [email protected]
Format settings, CABAC : Yes
Format settings, ReFrames : 10 frames
Codec ID : V_MPEG4/ISO/AVC
Duration : 1h 41mn
Bit rate : 2 608 Kbps
Width : 1 024 pixels
Height : 576 pixels
Display aspect ratio : 16:9
Frame rate mode : Constant
Frame rate : 29.970 fps
Color space : YUV
Chroma subsampling : 4:2:0
Bit depth : 8 bits
Scan type : Progressive
Bits/(Pixel*Frame) : 0.148
Stream size : 1.81 GiB (83%)
Writing library : x264 core 138 r2358 9e941d1
Encoding settings : cabac=1 / ref=10 / deblock=1:-3:-3 / analyse=0x3:0x133 / me=umh / subme=11 / psy=1 / psy_rd=1.00:0.05 / mixed_ref=1 / me_range=24 / chroma_me=1 / trellis=2 / 8x8dct=1 / cqm=0 / deadzone=21,11 / fast_pskip=0 / chroma_qp_offset=-3 / threads=6 / lookahead_threads=1 / sliced_threads=0 / nr=0 / decimate=1 / interlaced=0 / bluray_compat=0 / constrained_intra=0 / bframes=16 / b_pyramid=2 / b_adapt=2 / b_bias=0 / direct=3 / weightb=1 / open_gop=0 / weightp=2 / keyint=300 / keyint_min=29 / scenecut=40 / intra_refresh=0 / rc_lookahead=60 / rc=2pass / mbtree=1 / bitrate=2608 / ratetol=1.0 / qcomp=0.60 / qpmin=0 / qpmax=69 / qpstep=4 / cplxblur=20.0 / qblur=0.5 / vbv_maxrate=62500 / vbv_bufsize=78125 / nal_hrd=none / ip_ratio=1.40 / aq=1:1.00
Default : Yes
Forced : No
Audio
ID : 2
Format : AC-3
Format/Info : Audio Coding 3
Mode extension : CM (complete main)
Format settings, Endianness : Big
Codec ID : A_AC3
Duration : 1h 41mn
Bit rate mode : Constant
Bit rate : 448 Kbps
Channel(s) : 6 channels
Channel positions : Front: L C R, Side: L R, LFE
Sampling rate : 48.0 KHz
Bit depth : 16 bits
Compression mode : Lossy
Stream size : 327 MiB (15%)
Default : Yes
Forced : No
Яндекс.Метрика
Рейтинг@Mail.ru