[ Сегодня на трекере фрилич! Идет свободное скачивание без начисления Download ]

Уничтожение / Raze (2013) BDRip [H.264/720p-LQ]

 

Создавать темы 02-Июн-2014 06:33

-Уничтожение / Raze (2013) BDRip [H.264/720p-LQ]«Fight or die!»- Год выпуска: 2013
Производство: США
Жанр: Боевик, ужасы
Дата мировой премьеры: 21 апреля 2013
Режиссер: Джош С. Уоллер
Продюсер: Джош С. Уоллер, Роберт Бокейдж, Зои Белл
Актеры: Зои Белл, Рэйчел Николс, Трейси Томс, Шерилин Фенн, Даг Джонс, Брюс Томас, Бэйли Энн Бордерс, Ребекка Маршалл, Эдриэнн Уилкинсон, Али Андерсон, Розарио Доусон
Описание фильма:
История о 50-ти похищенных девушках, которые, ради удовольствия садистов из элитных кругов, вынуждены бороться друг с другом голыми руками по принципу «бейся или умри».
Перевод: Двухголосый закадровый, любительский (DeadSno & den904)
Субтитры: Вшитые отключаемые
Язык субтитров: Русский (notabenoid), Английский
Присутствует ненормативная лексика
Рейтинг MPAA: R (лицам до 17 лет обязательно присутствие взрослого)

Продолжительность: 01:32:00
Качество видео: BDRip [720p] [HDWinG]
Видеокодек: MPEG-4 AVC/H.264
Битрейт видео: ~3941 Kbps
Размер кадра: 1280x534, 23.976 fps
Аудио #1: AC3, 48.0 KHz, 2 ch, 192 Kbps, CBR (Русский, Двухголосый закадровый)
Аудио #2: AC3, 48.0 KHz, 6 ch, 640 Kbps, CBR (Английский)

MediaInfo

Формат                                   : Matroska
Версия формата                           : Version 2
Размер файла                             : 3,13 Гбайт
Продолжительность                        : 1 ч. 32 м.
Общий поток                              : 4870 Кбит/сек
Название фильма                          : Raze (2013)
Дата кодирования                         : UTC 2014-06-01 03:12:18
Программа кодирования                    : mkvmerge v6.9.1 ('Blue Panther') 64bit built on Apr 18 2014 18:23:38
Библиотека кодирования                   : libebml v1.3.0 + libmatroska v1.4.1
Видео
Идентификатор                            : 1
Формат                                   : AVC
Формат/Информация                        : Advanced Video Codec
Профиль формата                          : [url=mailto:[email protected]][email protected][/url]
Параметр CABAC формата                   : Да
Параметр ReFrames формата                : 12 кадров
Идентификатор кодека                     : V_MPEG4/ISO/AVC
Продолжительность                        : 1 ч. 32 м.
Битрейт                                  : 3941 Кбит/сек
Ширина                                   : 1280 пикселей
Высота                                   : 534 пикселя
Соотношение сторон                       : 2,40:1
Режим частоты кадров                     : Постоянный
Частота кадров                           : 24,000 кадра/сек
Цветовое пространство                    : YUV
Субдискретизация насыщенности            : 4:2:0
Битовая глубина                          : 8 бит
Тип развёртки                            : Прогрессивная
Бит/(Пиксели*Кадры)                      : 0.240
Размер потока                            : 2,53 Гбайт (81%)
Библиотека кодирования                   : x264 core 142 r2389+41 02cb608 tMod [[email protected] X86_64]
Настройки программы                      : cabac=1 / ref=12 / deblock=1:-3:-3 / analyse=0x3:0x133 / me=umh / subme=11 / psy=1 / fade_compensate=0.00 / psy_rd=1.00:0.00 / mixed_ref=1 / me_range=32 / chroma_me=1 / trellis=2 / 8x8dct=1 / cqm=0 / deadzone=21,11 / fast_pskip=0 / chroma_qp_offset=-2 / threads=18 / lookahead_threads=4 / sliced_threads=0 / nr=0 / decimate=0 / interlaced=0 / bluray_compat=0 / constrained_intra=0 / fgo=0 / bframes=10 / b_pyramid=2 / b_adapt=2 / b_bias=0 / direct=3 / weightb=1 / open_gop=0 / weightp=2 / keyint=250 / keyint_min=24 / scenecut=40 / intra_refresh=0 / rc_lookahead=80 / rc=crf / mbtree=0 / crf=16.0000 / qcomp=0.72 / qpmin=0:0:0 / qpmax=69:69:69 / qpstep=4 / vbv_maxrate=50000 / vbv_bufsize=62500 / crf_max=0.0 / nal_hrd=none / filler=0 / ip_ratio=1.40 / pb_ratio=1.30 / aq=1:0.90 / aq-sensitivity=10.00 / aq-factor=1.00:1.00:1.00 / aq2=0 / aq3=0 / zones=127022,132480,crf=25.0
Язык                                     : English
Default                                  : Да
Forced                                   : Нет
Аудио #1
Идентификатор                            : 2
Формат                                   : AC-3
Формат/Информация                        : Audio Coding 3
Расширение режима                        : CM (complete main)
Параметр Endianness формата              : Big
Идентификатор кодека                     : A_AC3
Продолжительность                        : 1 ч. 32 м.
Вид битрейта                             : Постоянный
Битрейт                                  : 192 Кбит/сек
Каналы                                   : 2 канала
Расположение каналов                     : Front: L R
Частота                                  : 48,0 КГц
Битовая глубина                          : 16 бит
Метод сжатия                             : С потерями
Размер потока                            : 126 Мбайт (4%)
Заголовок                                : DeadSno & den904
Язык                                     : Russian
Default                                  : Да
Forced                                   : Нет
Аудио #2
Идентификатор                            : 3
Формат                                   : AC-3
Формат/Информация                        : Audio Coding 3
Расширение режима                        : CM (complete main)
Параметр Endianness формата              : Big
Идентификатор кодека                     : A_AC3
Продолжительность                        : 1 ч. 32 м.
Вид битрейта                             : Постоянный
Битрейт                                  : 640 Кбит/сек
Каналы                                   : 6 каналов
Расположение каналов                     : Front: L C R, Side: L R, LFE
Частота                                  : 48,0 КГц
Битовая глубина                          : 16 бит
Метод сжатия                             : С потерями
Размер потока                            : 421 Мбайт (13%)
Язык                                     : English
Default                                  : Нет
Forced                                   : Нет
Текст #1
Идентификатор                            : 4
Формат                                   : UTF-8
Идентификатор кодека                     : S_TEXT/UTF8
Идентификатор кодека/Информация          : UTF-8 Plain Text
Язык                                     : Russian
Default                                  : Нет
Forced                                   : Нет
Текст #2
Идентификатор                            : 5
Формат                                   : UTF-8
Идентификатор кодека                     : S_TEXT/UTF8
Идентификатор кодека/Информация          : UTF-8 Plain Text
Язык                                     : English
Default                                  : Нет
Forced                                   : Нет
Меню
00:00:00.000                             : Chapter 1
00:07:44.208                             : Chapter 2
00:15:15.375                             : Chapter 3
00:22:59.041                             : Chapter 4
00:28:03.083                             : Chapter 5
00:33:13.375                             : Chapter 6
00:41:49.000                             : Chapter 7
00:49:27.750                             : Chapter 8
00:55:47.625                             : Chapter 9
01:05:18.500                             : Chapter 10
01:17:23.625                             : Chapter 11
01:24:32.333                             : Chapter 12
01:28:13.416                             : Chapter 13
01:31:57.958                             : Chapter 14
Скриншоты:
Время раздачи: 24/7 (до 10 скачавших)
Яндекс.Метрика
Рейтинг@Mail.ru