Кухня в Парижe (Дмитрий Дьяченко (II)) [2014 г., Комедия, WEB-DL, 720p]

 

Создавать темы 01-Июн-2014 17:21

-Кухня в Парижe-- Производство: Россия, YBW Group, Yellow, Black & White, СТС
Режиссер: Дмитрий Дьяченко (II)
Жанр: Комедия
Год выпуска: 2014 г.
Продолжительность: 01:46:42
Российская премьера: 1 мая 2014, «Централ Партнершип», «All Media»
Дата выхода DVD: 3 июня 2014, «CD Land», ...
Дата выхода Blu-Ray: 3 июня 2014, «CD Land», ...-В ролях: Дмитрий Назаров, Дмитрий Нагиев, Елена Подкаминская, Марина Могилевская, Марк Богатырёв, Виктор Хориняк, Ольга Кузьмина, Екатерина Кузнецова, Валерия Федорович, Жанныл Асанбекова, Елена Чернявская, Алексей Колган, Сергей Лавыгин, Сергей Епишев, Михаил Тарабукин, Никита Тарасов, Юлия Такшина, Виктория Лукина, Виталий Щанников, Сергей Беляев, Роман Индык, Евгения Храповицкая, Ольга Новосад, Серафима Низовская, Александр Карпиловский, Мария Горбань, Ирина Бразговка-Описание: Модный столичный ресторан «Клод Моне» процветает. Именно здесь, в родном заведении Вика и Максим хотят отпраздновать долгожданную свадьбу. Но планы меняются, когда в ресторане назначают переговоры Президентов России и Франции! Команда ресторана терпит фиаско и вынуждена отправиться в «изгнание» — в Париж. Там Шеф с Максом сталкиваются с опасными конкурентами: Шеф — с ближайшим родственником, а Максим — с красавцем Николя, который кружит Вике голову не хуже искристого шампанского! И это еще не все вызовы, которые бросает им «Город любви», ведь надо постараться спасти репутацию, накормить Президентов и преодолеть миллион препятствий à la française…-
Качество видео: WEB-DL
Контейнер: MKV
Стандарт разрешения: 720p
Видео кодек: H.264
Аудио кодек: AC3
Видео: MPEG-4 AVC, 4034 Кбит/с, 1280x532 (2.40:1), 24 fps, 0.242 bit / pix
Аудио: 48 kHz, AC3, 6 ch, 384 Кбит/с
Cубтитры: отсутствуют

Media Info

Kuhnia.2014.O.WEB-DL.720p.mkv
Format : Matroska
Format version : Version 2
File size : 3.29 GiB
Duration : 1h 46mn
Overall bit rate : 4 420 Kbps
Encoded date : UTC 2014-05-31 18:52:35
Writing application : mkvmerge v6.9.1 ('Blue Panther')
64bit built on Apr 18 2014 18:23:38
Writing library : libebml v1.3.0 + libmatroska v1.4.1
Video
ID : 1
Format : AVC
Format/Info : Advanced Video Codec
Format profile : [email protected]
Format settings, CABAC : No
Format settings, ReFrames : 2 frames
Codec ID : V_MPEG4/ISO/AVC
Duration : 1h 46mn
Bit rate : 3 948 Kbps
Width : 1 280 pixels
Height : 532 pixels
Display aspect ratio : 2.40:1
Frame rate : 24.000 fps
Color space : YUV
Chroma subsampling : 4:2:0
Bit depth : 8 bits
Scan type : Progressive
Bits/(Pixel*Frame) : 0.242
Stream size : 2.94 GiB (89%)
Language : English
Default : Yes
Forced : No
Color primaries : BT.709-5, BT.1361, IEC 61966-2-4, SMPTE RP177
Transfer characteristics : BT.709-5, BT.1361
Matrix coefficients : BT.709-5, BT.1361, IEC 61966-2-4 709, SMPTE RP177
Audio
ID : 2
Format : AC-3
Format/Info : Audio Coding 3
Mode extension : CM (complete main)
Codec ID : A_AC3
Duration : 1h 46mn
Bit rate mode : Constant
Bit rate : 384 Kbps
Channel(s) : 6 channels
Channel positions : Front: L C R, Side: L R, LFE
Sampling rate : 48.0 KHz
Bit depth : 16 bits
Compression mode : Lossy
Stream size : 293 MiB (9%)
Language : Russian
Default : Yes
Forced : No
Menu
00:00:00.000 : en:Глава 1
00:06:06.000 : en:Глава 2
00:11:09.000 : en:Глава 3
00:16:11.000 : en:Глава 4
00:21:12.000 : en:Глава 5
00:26:14.000 : en:Глава 6
00:31:15.000 : en:Глава 7
00:36:15.000 : en:Глава 8
00:41:17.000 : en:Глава 9
00:46:30.000 : en:Глава 10
00:51:31.000 : en:Глава 11
00:56:43.000 : en:Глава 12
01:01:45.000 : en:Глава 13
01:06:48.000 : en:Глава 14
01:11:48.000 : en:Глава 15
01:17:02.000 : en:Глава 16
01:22:05.000 : en:Глава 17
01:27:05.000 : en:Глава 18
01:32:06.000 : en:Глава 19
01:37:08.000 : en:Глава 20

Скриншоты

Яндекс.Метрика
Рейтинг@Mail.ru