[ Сегодня на трекере фрилич! Идет свободное скачивание без начисления Download ]

Бодрость Духов / High Spirits (Нил Джордан / Neil Jordan) [1988 г., Комедия, HDTVRip-AVC, 576р] AVO (Михалев [Ранний, Поздний])

 

Создавать темы 01-Июн-2014 17:17

Бодрость Духов / High Spirits«He's an American. She's a ghost. Vacation romances are always a hassle»- Год выпуска: 1988
Мировая премьера: 18 November 1988 (USA)
Производство: США
Жанр: Комедия
Продолжительность: 01:33:44
Перевод: Авторский (одноголосый закадровый) Алексей Михалев (ранний*, поздний)
* - Две дорожки, как есть и чищенная в изотопе. Дорожку предоставил pupsik197 (е180). Кое-что пришлось переделать.
Режиссер: Нил Джордан / Neil Jordan
В ролях: Дженнифер Тилли / Jennifer Tilly, Дэрил Ханна / Daryl Hannah, Питер О'Тул / Peter O'Toole, Стив Гуттенберг / Steve Guttenberg, Лиам Нисон / Liam Neeson, Беверли Д'Анджело / Beverly D'Angelo, Рой МакЭналли / Roy McAnally, Питер Галлахер / Peter Gallagher
Описание: Изысканная лента почти целиком снята в полуразрушенном ирландском замке. Владелец (О Тул) намерен сдать его в наем американским туристам, охотникам за привидениями. Указав в рекламе, что в замке водятся привидения, он всех слуг переодевает соответствующим образом. Сюрпризом для самого хозяина становится факт, что там на самом деле водятся призраки. Один (Гаттенберг), будучи не в ладах с женой (д Анджело), знакомится с очаровательным привидением (Ханна), которая много лет назад была здесь убита в день свадьбы. Ее нареченному (Нисон), в свою очередь, очень нравится супруга первого призрака... (Иванов М.)

Качество: HDTVRip-AVC
Контейнер: MKV
Видео кодек: MPEG-4 AVC / h.264
Рзрешение: 576p
Видео: 1024 x 576 (1,85:1), x264, [email protected], 25.000 fps, ~ 2 355 Kbps
Аудио#1: 48 kHz, AC3 Dolby Digital, 2/0 (L,R) ch, ~192.00 kbps avg - Михалев ранний (как есть)
Аудио#2: 48 kHz, AC3 Dolby Digital, 2/0 (L,R) ch, ~192.00 kbps avg - Михалев ранний (чищенный)
Аудио#2: 48 kHz, AC3 Dolby Digital, 3/2 (L,C,R,l,r) + LFE ch, ~384 kbps avg - Михалев (поздний)

x.264 log

avs [info]: 1024x556p 1:1 @ 25/1 fps (cfr)
x264 [info]: using SAR=1/1
x264 [info]: using cpu capabilities: MMX2 SSE2Slow SlowCTZ
x264 [info]: profile High, level 4.1
x264 [info]: frame I:1090 Avg QP:15.65 size: 92423
x264 [info]: frame P:32051 Avg QP:19.08 size: 27329
x264 [info]: frame B:107451 Avg QP:23.69 size: 6318
x264 [info]: consecutive B-frames: 1.3% 2.0% 5.0% 45.4% 28.4% 8.5% 3.3% 2.4% 3.2% 0.6%
x264 [info]: mb I I16..4: 5.0% 72.8% 22.1%
x264 [info]: mb P I16..4: 0.8% 11.7% 1.6% P16..4: 30.9% 33.7% 13.4% 3.0% 0.4% skip: 4.5%
x264 [info]: mb B I16..4: 0.1% 1.6% 0.2% B16..8: 34.1% 15.7% 2.1% direct: 4.0% skip:42.3% L0:40.4% L1:44.8% BI:14.8%
x264 [info]: 8x8 transform intra:82.5% inter:60.0%
x264 [info]: coded y,uvDC,uvAC intra: 89.9% 72.3% 30.0% inter: 21.5% 14.2% 0.8%
x264 [info]: i16 v,h,dc,p: 15% 13% 4% 68%
x264 [info]: i8 v,h,dc,ddl,ddr,vr,hd,vl,hu: 10% 8% 5% 9% 13% 14% 13% 13% 14%
x264 [info]: i4 v,h,dc,ddl,ddr,vr,hd,vl,hu: 13% 8% 5% 8% 14% 15% 13% 12% 12%
x264 [info]: i8c dc,h,v,p: 31% 29% 22% 18%
x264 [info]: Weighted P-Frames: Y:5.7% UV:3.0%
x264 [info]: ref P L0: 50.4% 13.2% 17.1% 5.3% 4.6% 3.4% 3.4% 2.4% 0.2% 0.0%
x264 [info]: ref B L0: 85.8% 8.0% 2.9% 1.3% 1.0% 0.6% 0.3%
x264 [info]: ref B L1: 94.7% 5.3%
x264 [info]: kb/s:2355.07

Media Info

Формат : Matroska
Версия формата : Version 4 / Version 2
Размер файла : 2,05 Гбайт
Продолжительность : 1 ч. 33 м.
Общий поток : 3125 Кбит/сек
Название фильма : High Spirit.1988.h264.HDTVRip.Mihalev (Early, Later) -=anton966=-
Дата кодирования : UTC 2014-06-01 04:55:30
Программа кодирования : mkvmerge v6.9.1 ('Blue Panther') 32bit built on Apr 18 2014 18:15:44
Библиотека кодирования : libebml v1.3.0 + libmatroska v1.4.1
Видео
Идентификатор : 1
Формат : AVC
Формат/Информация : Advanced Video Codec
Профиль формата : [email protected]
Параметр CABAC формата : Да
Параметр ReFrames формата : 8 кадров
Идентификатор кодека : V_MPEG4/ISO/AVC
Продолжительность : 1 ч. 33 м.
Битрейт : 2295 Кбит/сек
Ширина : 1024 пикселя
Высота : 556 пикселей
Соотношение сторон : 1,85:1
Режим частоты кадров : Постоянный
Частота кадров : 25,000 кадров/сек
Цветовое пространство : YUV
Субдискретизация насыщенности : 4:2:0
Битовая глубина : 8 бит
Тип развёртки : Прогрессивная
Бит/(Пиксели*Кадры) : 0.161
Размер потока : 1,50 Гбайт (73%)
Заголовок : High Spirit.1988.h264.HDTVRip 1024x556
Библиотека кодирования : x264 core 142 r2431 ac76440
Настройки программы : cabac=1 / ref=8 / deblock=1:-2:-2 / analyse=0x3:0x133 / me=umh / subme=11 / psy=1 / psy_rd=0.95:0.10 / mixed_ref=1 / me_range=24 / chroma_me=1 / trellis=2 / 8x8dct=1 / cqm=0 / deadzone=21,11 / fast_pskip=0 / chroma_qp_offset=-3 / threads=3 / lookahead_threads=1 / sliced_threads=0 / nr=0 / decimate=1 / interlaced=0 / bluray_compat=0 / constrained_intra=0 / bframes=9 / b_pyramid=2 / b_adapt=2 / b_bias=0 / direct=1 / weightb=1 / open_gop=0 / weightp=2 / keyint=240 / keyint_min=24 / scenecut=40 / intra_refresh=0 / rc_lookahead=50 / rc=crf / mbtree=1 / crf=18.5 / qcomp=0.60 / qpmin=0 / qpmax=69 / qpstep=4 / ip_ratio=1.40 / aq=2:1.00
Язык : English
Default : Да
Forced : Нет
Аудио #1
Идентификатор : 2
Формат : AC-3
Формат/Информация : Audio Coding 3
Профиль формата : Dolby Digital
Расширение режима : CM (complete main)
Параметр Endianness формата : Big
Идентификатор кодека : A_AC3
Продолжительность : 1 ч. 33 м.
Вид битрейта : Постоянный
Битрейт : 192 Кбит/сек
Каналы : 2 канала
Расположение каналов : Front: L R
Частота : 48,0 КГц
Битовая глубина : 16 бит
Метод сжатия : С потерями
Размер потока : 129 Мбайт (6%)
Заголовок : Mihalev Early AC3 2.0 @ 192kbps
Язык : Russian
Default : Да
Forced : Нет
Аудио #2
Идентификатор : 3
Формат : AC-3
Формат/Информация : Audio Coding 3
Профиль формата : Dolby Digital
Расширение режима : CM (complete main)
Параметр Endianness формата : Big
Идентификатор кодека : A_AC3
Продолжительность : 1 ч. 33 м.
Вид битрейта : Постоянный
Битрейт : 192 Кбит/сек
Каналы : 2 канала
Расположение каналов : Front: L R
Частота : 48,0 КГц
Битовая глубина : 16 бит
Метод сжатия : С потерями
Размер потока : 129 Мбайт (6%)
Заголовок : Mihalev Early Clear AC3 2.0 @ 192kbps
Язык : Russian
Default : Нет
Forced : Нет
Аудио #3
Идентификатор : 4
Формат : AC-3
Формат/Информация : Audio Coding 3
Расширение режима : CM (complete main)
Параметр Endianness формата : Big
Идентификатор кодека : A_AC3
Продолжительность : 1 ч. 33 м.
Вид битрейта : Постоянный
Битрейт : 384 Кбит/сек
Каналы : 6 каналов
Расположение каналов : Front: L C R, Side: L R, LFE
Частота : 48,0 КГц
Битовая глубина : 16 бит
Метод сжатия : С потерями
Задержка видео : 745 мс.
Размер потока : 257 Мбайт (12%)
Заголовок : Mihalev AC3 5.1 @ 384 kbps
Язык : Russian
Default : Нет
Forced : Нет

Скриншоты

Яндекс.Метрика
Рейтинг@Mail.ru