Дело в тебе / A Case of You (Кэт Койро / Kat Coiro) [2013 г., Мелодрама, комедия, HDRip] MVO

 

Создавать темы 01-Июн-2014 17:05

-Дело в тебе / A Case of You-«He'll be everything she likes but himself»- Производство: США, I'm So Sorry Productions, Lagniappe Films, Mega Playground
Год выпуска: 2013 г.
Жанр: Мелодрама, комедия
Продолжительность: 01:31:32
Мировая премьера: 21 апреля 2013-Перевод: Профессиональный (многоголосый, закадровый) [официальная озвучка]-Режиссер: Кэт Койро / Kat Coiro
В ролях: Джастин Лонг,Эван Рэйчел Вуд,Кейр О’Доннелл,Бизи Филиппс,Сиенна Миллер,Питер Динклэйдж,Брендан Фрейзер,Сэм Рокуэлл,Винс Вон,Линн Коэн-Описание: Фильм о том, как парень изучил анкету девушки и пытался стать ее идеальным мужчиной, делая все, что указано в ее профиле, чтобы понравиться ей.- -Качество видео: HDRip
Контейнер: AVI
Видео кодек: XviD
Аудио кодек: AC3
Видео: 720x304 (2.37:1), 23.976 fps, XviD build 50 ~1680 kbps avg, 0.32 bit/pixel
Аудио: 48 kHz, AC3 Dolby Digital, 3/2 (L,C,R,l,r) + LFE ch, ~448 kbps
Cубтитры: отсутствуют

Media Info

General
Complete name : D:\A.Case.of.You.2013.P.HDRip.1400Mb.avi
Format : AVI
Format/Info : Audio Video Interleave
File size : 1.37 GiB
Duration : 1h 31mn
Overall bit rate : 2 138 Kbps
Writing application : VirtualDubMod 1.5.10.2 (build 2540/release)
Writing library : VirtualDubMod build 2540/release
Video
ID : 0
Format : MPEG-4 Visual
Format profile : Advanced [email protected]
Format settings, BVOP : 2
Format settings, QPel : No
Format settings, GMC : No warppoints
Format settings, Matrix : Custom
Codec ID : XVID
Codec ID/Hint : XviD
Duration : 1h 31mn
Bit rate : 1 681 Kbps
Width : 720 pixels
Height : 304 pixels
Display aspect ratio : 2.35:1
Frame rate : 23.976 fps
Color space : YUV
Chroma subsampling : 4:2:0
Bit depth : 8 bits
Scan type : Progressive
Compression mode : Lossy
Bits/(Pixel*Frame) : 0.320
Stream size : 1.07 GiB (79%)
Writing library : XviD 1.2.1 (UTC 2008-12-04)
Audio
ID : 1
Format : AC-3
Format/Info : Audio Coding 3
Mode extension : CM (complete main)
Format settings, Endianness : Big
Codec ID : 2000
Duration : 1h 31mn
Bit rate mode : Constant
Bit rate : 448 Kbps
Channel(s) : 6 channels
Channel positions : Front: L C R, Side: L R, LFE
Sampling rate : 48.0 KHz
Bit depth : 16 bits
Compression mode : Lossy
Stream size : 293 MiB (21%)
Alignment : Split accross interleaves
Interleave, duration : 42 ms (1.00 video frame)
Interleave, preload duration : 500 ms

Скриншоты

Яндекс.Метрика
Рейтинг@Mail.ru