Солдаты неудачи / Tropic Thunder (Бен Стиллер / Ben Stiller) (Режиссёрская версия / Director's cut) [2008 г., Боевик, комедия, приключения, HDRip] Dub «Юниверсал Пикчерс Рус»

 

Создавать темы 01-Июн-2014 05:24

-Солдаты неудачи / Tropic Thunder-Режиссёрская версия / Director's cut-«Они сражались за 'Оскар'»- Производство: США, Германия, Великобритания, DreamWorks SKG, Red Hour Films, Goldcrest Pictures
Год выпуска: 2008 г.
Жанр: Боевик, комедия, приключения
Продолжительность: 02:01:08
Мировая премьера: 13 августа 2008
Российская премьера: 13 августа 2008, «UPI»
Дата выхода DVD: 2 декабря 2008, «Юниверсал Пикчерс Рус»
Дата выхода Blu-Ray: 28 апреля 2009, «Юниверсал Пикчерс Рус»-Перевод: Профессиональный (полное дублирование)-Режиссер: Бен Стиллер / Ben Stiller
В ролях: Бен Стиллер, Роберт Дауни мл., Джек Блэк, Брэндон Т. Джексон, Ник Нолти, Стив Кугэн, Билл Хэйдер, Джастин Теру, Трю Трэн, Джей Баручел, Дэнни Р. МакБрайд, Брэндон Су Ху, Реджи Ли, Андреа Де Оливейра, Надин Эллис, Мэтт Левин, Дэвид Прессман, Нилл Скайлар, Том Круз, Тоби Магуайр, Мэттью МакКонахи-Описание: Камера. Мотор. Начали! В реальных джунглях проходят съемки суперблокбастера с участием больших звезд, среди которых: крутой герой боевиков, мастер туалетного юмора, чернокожий рэпер Альпа Чино и обладатель всех кинопремий, специально для фильма перекрасивший кожу в черный цвет.
Когда у продюсеров закончились деньги и съемки были остановлены — актерам про это не сказали. Поэтому они с холостыми патронами с легкостью вступают в неравный бой с настоящими вооруженными до зубов бандитами-головорезами…- -Качество видео: HDRip
Контейнер: AVI
Видео кодек: XviD
Аудио кодек: AC3
Видео: 720x304 (2.37:1), 23.976 fps, XviD build 50 ~1531 kbps avg, 0.29 bit/pixel
Аудио: 48 kHz, AC3 Dolby Digital, 3/2 (L,C,R,l,r) + LFE ch, ~192 kbps
Cубтитры: отсутствуют
Примечание: Присутствуют вставки многоголосного перевода.

Media Info

General
Complete name : C:\Users\Ivan\Desktop\Tropic.Thunder.2008.HDRip.avi
Format : AVI
Format/Info : Audio Video Interleave
File size : 1.47 GiB
Duration : 2h 1mn
Overall bit rate : 1 733 Kbps
Movie name : Солдаты неудачи
Director : LPPI [Pirat.ca]
Writing application : VirtualDubMod 1.5.10.3 | www.virtualdub-fr.org || (build 2550/release)
Video
ID : 0
Format : MPEG-4 Visual
Format profile : Advanced [email protected]
Format settings, BVOP : 1
Format settings, QPel : No
Format settings, GMC : No warppoints
Format settings, Matrix : Default (MPEG)
Codec ID : XVID
Codec ID/Hint : XviD
Duration : 2h 1mn
Bit rate : 1 531 Kbps
Width : 720 pixels
Height : 304 pixels
Display aspect ratio : 2.35:1
Frame rate : 23.976 fps
Color space : YUV
Chroma subsampling : 4:2:0
Bit depth : 8 bits
Scan type : Progressive
Compression mode : Lossy
Bits/(Pixel*Frame) : 0.292
Stream size : 1.30 GiB (88%)
Writing library : XviD 1.2.1 (UTC 2008-12-04)
Audio
ID : 1
Format : AC-3
Format/Info : Audio Coding 3
Mode extension : CM (complete main)
Format settings, Endianness : Big
Codec ID : 2000
Duration : 2h 1mn
Bit rate mode : Constant
Bit rate : 192 Kbps
Channel(s) : 6 channels
Channel positions : Front: L C R, Side: L R, LFE
Sampling rate : 48.0 KHz
Bit depth : 16 bits
Compression mode : Lossy
Stream size : 166 MiB (11%)
Alignment : Split accross interleaves
Interleave, duration : 42 ms (1.00 video frame)
Interleave, preload duration : 500 ms

Скриншоты

Яндекс.Метрика
Рейтинг@Mail.ru