Мачете / Machete (Роберт Родригес / Robert Rodriguez, Этан Маникис / Ethan Maniquis) [2010 г., Боевик, триллер, криминал, комедия, BDRip] AVO (Гаврилов, Сербин, Горчаков, Карповский)

 

Создавать темы 31-Май-2014 06:26

Мачете / Machete Год выпуска: 2010
Производство: США. 20th Century Fox Film Corporation
Жанр: Боевик, триллер, криминал, комедия
Продолжительность: 01:44:59
Перевод 1: Авторский (одноголосый, закадровый) Гаврилов
Перевод 2: Авторский (одноголосый, закадровый) Сербин
Перевод 3: Авторский (одноголосый, закадровый) Горчаков
Перевод 4: Авторский (одноголосый, закадровый) Карповский
Субтитры: отсутствуют
Режиссер: Роберт Родригес / Robert Rodriguez, Этан Маникис / Ethan Maniquis
В ролях: Дэнни Трехо, Роберт Де Ниро, Джессика Альба, Стивен Сигал, Мишель Родригес, Джефф Фэйи, Чич Марин, Дон Джонсон, Ши Уигхэм, Линдси Лохан
Описание: Он — первоклассный убийца, расчётливый и хладнокровный наёмник, не привыкший обсуждать приказы. Он — Федерале Мачете, лучший в своём деле. Однако, не всё бывает гладко даже у таких профессионалов и асов, как он. Во время выполнения очередного задания по ликвидации сенатора, Мачете сам получает пулю, как впоследствии выясняется, от своих же. Оставит ли лучший в мире наёмник обидчиков безнаказанными — вопрос риторический, посему вскоре бывшие боссы Мачете приходят в страх и ужас, когда бывший союзник выходит на тропу войны и беспощадной мести против правительственной организации, на которую он работал ранее. Месть будет кровавой…-
Качество видео: BDRip
Контейнер: AVI
Видео кодек: XviD
Аудио кодек: AC3
Видео: 704x384 (1.85:1), 23.976 fps, XviD build 73 ~1950 kbps avg, 0.30 bit/pixel
Аудио #1: 48 kHz, AC3 Dolby Digital, 2/0 (L,R) ch, ~192.00 kbps avg - А.Гаврилов
Аудио #2: 48 kHz, AC3 Dolby Digital, 2/0 (L,R) ch, ~192.00 kbps avg - Ю.Сербин
Аудио #3: 48 kHz, AC3 Dolby Digital, 2/0 (L,R) ch, ~192.00 kbps avg - В.Горчаков
Аудио #4: 48 kHz, AC3 Dolby Digital, 2/0 (L,R) ch, ~192.00 kbps avg - В.Карповский

Доп. информация

Исходник:BDRip (720p) Мастер5

Награды

Идея снять фильм про наемного убийцу, которого «кинули» сами же заказчики, появилась у Родригеса и Тарантино еще в 90-ых. Осуществить задуманную идею Родригес решил только после выхода фильма «Грайндхаус», в котором, в качестве анонса будущих кинопремьер, был показан трейлер фильма «Мачете», несуществовавшего на тот момент даже в проекте.
Сцены с участием Линдси Лохан отсняли за 3 дня.
Крис Купер отказался от роли в фильме после прочтения сценария, сказав: «Это самая абсурдная вещь, которую я когда-либо читал».
5 мая 2010 года в Интернете появился трейлер, выпущенный в честь национального мексиканского праздника Cinco de Mayo. Трейлер сразу же вызвал у американцев волну негодования, Роберт Родригес был обвинён в разжигании расовой войны.
В личном деле Мачете, что просматривала агент Ривера, указанна реальная дата рождения Денни Трехо — 16 may 1944.
Роберт Родригес написал сценарий еще в 1993 году после того, как придумал сюжет фильма «Отчаянный».

Media Info

Видео
Идентификатор : 0
Формат : MPEG-4 Visual
Профиль формата : Advanced [email protected]
Параметр BVOP формата : 1
Параметр QPel формата : Нет
Параметр GMC формата : Без точки перехода
Параметр матрицы формата : Выборочная
Идентификатор кодека : XVID
Идентификатор кодека/Подсказка : XviD
Продолжительность : 1 ч. 44 м.
Битрейт : 1950 Кбит/сек
Ширина : 704 пикселя
Высота : 384 пикселя
Соотношение сторон : 1,85:1
Частота кадров : 23,976 кадра/сек
Цветовое пространство : YUV
Субдискретизация насыщенности : 4:2:0
Битовая глубина : 8 бит
Тип развёртки : Прогрессивная
Метод сжатия : С потерями
Бит/(Пиксели*Кадры) : 0.301
Размер потока : 1,43 Гбайт (71%)
Библиотека кодирования : XviD 73
Аудио #1
Идентификатор : 1
Формат : AC-3
Формат/Информация : Audio Coding 3
Расширение режима : CM (complete main)
Параметр Endianness формата : Big
Идентификатор кодека : 2000
Продолжительность : 1 ч. 44 м.
Вид битрейта : Постоянный
Битрейт : 192 Кбит/сек
Каналы : 2 канала
Расположение каналов : Front: L R
Частота : 48,0 КГц
Битовая глубина : 16 бит
Метод сжатия : С потерями
Размер потока : 144 Мбайт (7%)
Выравнивание : Разделение по промежуткам
Продолжительность промежутка : 42 мс. (1,00 видеокадр)
Время предзагрузки промежутка : 500 мс.
Аудио #2
Идентификатор : 2
Формат : AC-3
Формат/Информация : Audio Coding 3
Расширение режима : CM (complete main)
Параметр Endianness формата : Big
Идентификатор кодека : 2000
Продолжительность : 1 ч. 44 м.
Вид битрейта : Постоянный
Битрейт : 192 Кбит/сек
Каналы : 2 канала
Расположение каналов : Front: L R
Частота : 48,0 КГц
Битовая глубина : 16 бит
Метод сжатия : С потерями
Размер потока : 144 Мбайт (7%)
Выравнивание : Разделение по промежуткам
Продолжительность промежутка : 42 мс. (1,00 видеокадр)
Время предзагрузки промежутка : 500 мс.
Аудио #3
Идентификатор : 3
Формат : AC-3
Формат/Информация : Audio Coding 3
Расширение режима : CM (complete main)
Параметр Endianness формата : Big
Идентификатор кодека : 2000
Продолжительность : 1 ч. 44 м.
Вид битрейта : Постоянный
Битрейт : 192 Кбит/сек
Каналы : 2 канала
Расположение каналов : Front: L R
Частота : 48,0 КГц
Битовая глубина : 16 бит
Метод сжатия : С потерями
Размер потока : 144 Мбайт (7%)
Выравнивание : Разделение по промежуткам
Продолжительность промежутка : 42 мс. (1,00 видеокадр)
Время предзагрузки промежутка : 500 мс.
Аудио #4
Идентификатор : 4
Формат : AC-3
Формат/Информация : Audio Coding 3
Расширение режима : CM (complete main)
Параметр Endianness формата : Big
Идентификатор кодека : 2000
Продолжительность : 1 ч. 44 м.
Вид битрейта : Постоянный
Битрейт : 192 Кбит/сек
Каналы : 2 канала
Расположение каналов : Front: L R
Частота : 48,0 КГц
Битовая глубина : 16 бит
Метод сжатия : С потерями
Размер потока : 144 Мбайт (7%)
Выравнивание : Разделение по промежуткам
Продолжительность промежутка : 42 мс. (1,00 видеокадр)
Время предзагрузки промежутка : 500 мс.

Скриншоты

]
Яндекс.Метрика
Рейтинг@Mail.ru