[ Сегодня на трекере фрилич! Идет свободное скачивание без начисления Download ]

Скорый «Москва-Россия» (Игорь Волошин) [2014 г., комедия, приключения, DVDRip] «CD Land»

 

Создавать темы 31-Май-2014 05:56

-Скорый «Москва-Россия»-- Производство: Россия Bulldozerfilms
Режиссер: Игорь Волошин
Жанр: комедия, приключения
Год выпуска: 2014 г.
Продолжительность: 01:24:34
Российская премьера: 17 апреля 2014, «Наше Кино»
Дата выхода DVD: 5 июня 2014, «CD Land»
В ролях: Сергей Светлаков, Маргарита Левиева, Павел Деревянко, Майкл Мэдсен, Ингеборга Дапкунайте, Спартак Кондауров, Максим Голополосов, Иван Ургант, Виктор Проскурин, Ольга Симонова-Описание: Это история про парня, который душу готов продать, лишь бы набрать миллион просмотров для своего видео на YouTube. На пути к своей цели он оказывается в скором поезде «Москва — Владивосток», где сталкивается с американской актрисой, страдающей аэрофобией. В пути незнакомцев ожидают такие приключения, что они отстают от поезда, который пытаются догнать, продвигаясь по нашей непредсказуемой и сказочной России-матушке… Ведь каждому из них нужно оказаться во Владивостоке ровно через 7 дней — по причинам, которые они тщательно скрывают друг от друга.-
Качество видео: DVDRip
Контейнер: AVI
Видео кодек: XviD
Аудио кодек: AC3
Видео: 720x304 (2.37:1), 25 fps, XviD ~1859 kbps avg, 0.340 bit/pixel
Аудио: 48 kHz, AC3 Dolby Digital, 6 ch, ~448 kbps
Cубтитры: отсутствуют

Media Info

General
Complete name : W:\Skoryj.Moskva-Rossija.2014.DVDRip.avi
Format : AVI
Format/Info : Audio Video Interleave
File size : 1.37 GiB
Duration : 1h 24mn
Overall bit rate : 2 317 Kbps
Writing application : VirtualDubMod 1.5.10.3 | www.virtualdub-fr.org || (build 2550/release)
Writing library : VirtualDubMod build 2550/release
Video
ID : 0
Format : MPEG-4 Visual
Format profile : Advanced [email protected]
Format settings, BVOP : Yes
Format settings, QPel : No
Format settings, GMC : No warppoints
Format settings, Matrix : Default (MPEG)
Codec ID : XVID
Codec ID/Hint : XviD
Duration : 1h 24mn
Bit rate : 1 859 Kbps
Width : 720 pixels
Height : 304 pixels
Display aspect ratio : 2.35:1
Frame rate : 25.000 fps
Color space : YUV
Chroma subsampling : 4:2:0
Bit depth : 8 bits
Scan type : Progressive
Bits/(Pixel*Frame) : 0.340
Stream size : 1.10 GiB (80%)
Writing library : XviD 1.2.1 (UTC 2008-12-04)
Audio
ID : 1
Format : AC-3
Format/Info : Audio Coding 3
Mode extension : CM (complete main)
Codec ID : 2000
Duration : 1h 24mn
Bit rate mode : Constant
Bit rate : 448 Kbps
Channel(s) : 6 channels
Channel positions : Front: L C R, Side: L R, LFE
Sampling rate : 48.0 KHz
Bit depth : 16 bits
Stream size : 271 MiB (19%)
Alignment : Split accross interleaves
Interleave, duration : 40 ms (1.00 video frame)
Interleave, preload duration : 500 ms

Скриншоты

Яндекс.Метрика
Рейтинг@Mail.ru