Голос. Сезон №2. Выпуск №7 (2013.10.18) SATRip

 

Создавать темы 18-Окт-2013 19:09

- Голос. Сезон №2. Выпуск №7 (2013.10.18) SATRip - Режиссер / Телекомпания: Первый канал
Русское название: Голос
Год выпуска: 2013
Жанр: ТВ-Шоу, развлекательный
Описание:
В эфире Первого канала – долгожданное продолжение музыкального проекта "Голос", ставшего одним из самых ярких явлений на отечественном телевидении в прошлом сезоне.
Наставники те же: Александр Градский, Пелагея, Леонид Агутин и Дмитрий Билан.
Тот же ведущий – Дмитрий Нагиев. И те же 150 вокалистов, выстроившихся в очередь на фирменные "слепые прослушивания". Позади – предварительный отбор, во время которого из почти 11 тысяч желающих нужно было выбрать полторы сотни самых незаурядных исполнителей. Теперь слово за наставниками, которые готовы набирать свои команды.
В сравнении с первым сезоном в шоу внесено несколько изменений.
Команды
Изначально в каждой команде будет по 14 вокалистов.
Похищения
На стадии битв наставники смогут "похитить" двух вокалистов у других наставников.
Битвы и Нокауты
Теперь битв, в которых участники одной команды будут соревноваться друг с другом на выбывание, станет больше.
В конечном итоге в каждой из команд останется только по 6 человек. И тогда придет черед "живых концертов" со зрительским голосованием. По итогам первых двух проект покинут 16 слабейших вокалистов. В полуфинале из 8 отсеются еще четверо. В финале определится сильнейший!
Ведущий: Дмитрий Нагиев
Продолжительность: ~ 01:45:52
Видеокодек: DivX
Битрейт видео: ~1500 kb/s
Размер кадра: 720 x 400
Качество видео: SATRip
Аудиокодек: MP2, 2ch.
Битрейт аудио: 192 kb/s

MediaInfo

Формат : AVI
Формат/Информация : Audio Video Interleave
Размер файла : 1,26 Гбайт
Продолжительность : 1 ч. 45 м.
Общий поток : 1702 Кбит/сек
Программа кодирования : VirtualDubModRus 1.5.10.1 (build 2439/release)
Библиотека кодирования : VirtualDubMod build 2439/release
Видео
Идентификатор : 0
Формат : MPEG-4 Visual
Параметр BVOP формата : 1
Параметр QPel формата : Нет
Параметр GMC формата : Без точки перехода
Параметр матрицы формата : Default (H.263)
Режим смешивания : Сжатый битовый поток
Идентификатор кодека : DX50
Идентификатор кодека/Подсказка : DivX 5
Продолжительность : 1 ч. 45 м.
Битрейт : 1501 Кбит/сек
Ширина : 704 пикселя
Высота : 400 пикселей
Соотношение сторон : 16:9
Частота кадров : 25,000 кадров/сек
Цветовое пространство : YUV
Субдискретизация насыщенности : 4:2:0
Битовая глубина : 8 бит
Тип развёртки : Прогрессивная
Метод сжатия : С потерями
Бит/(Пиксели*Кадры) : 0.213
Размер потока : 1,11 Гбайт (88%)
Библиотека кодирования : DivX 6.8.5 (UTC 2009-08-20)
Аудио
Идентификатор : 1
Формат : MPEG Audio
Версия формата : Version 1
Профиль формата : Layer 2
Идентификатор кодека : 50
Продолжительность : 1 ч. 45 м.
Вид битрейта : Постоянный
Битрейт : 192 Кбит/сек
Каналы : 2 канала
Частота : 48,0 КГц
Метод сжатия : С потерями
Размер потока : 145 Мбайт (11%)
Выравнивание : Соединение по промежуткам
Продолжительность промежутка : 40 мс. (1,00 видеокадр)
Время предзагрузки промежутка : 504 мс.

Скриншоты


_________________
Подпись отключена за нарушение правил форума

Создавать темы 18-Окт-2013 19:35 (спустя 26 минут)

Яндекс.Метрика
Рейтинг@Mail.ru