Священник-пастух / Pastor Shepherd (Эдвин Л. Маршалл/Edwin L. Marshall) [2010, комедия, BDRip]

 

Создавать темы 29-Май-2014 19:22

Священник-пастух / Pastor Shepherd
«Pastor Shepherd... there's only one... Thank God!»- Год выпуска: 2010
Производство: США / Harbor Light Entertainment, Second Chance Pictures
Жанр: комедия
Язык: русский, английский
Перевод: двухголосый закадровый, профессиональный (НТВ+)
Субтитры: отсутствуют
Режиссер: Эдвин Л. Маршалл
Сценарий: Бен Гоуинг, Мэттью Ф. Перри
Продюсер: Лидия Флеминг, Эдвин Л. Маршалл, Джеймс Свишер
Актеры: Дэнни Трехо, Пастор Шеперд, Мария-Елена Лаас, Дайан Грушка, Джош Перри, Сьюэлл Уитни, Скотт Аллен Перри, Рэйчел Айерс, Клэй Блэкстоун, Док Дэхтлер
Описание фильма:
Престарелая мать Шеперда опустошает семейный бюджет, приобретая лекарства в телемагазинах и жертвуя деньги телепроповедникам. Самого Шеперда увольняют с работы. Вместе с мамашей и соседом он отправляется в путешествие, которое может изменить его жизнь.

Ограничения по возрасту: 16+ (зрителям, достигшим 16 лет)
Дата мировой премьеры: 16 апреля 2010
Продолжительность: 01:33:24
Качество видео: BDRip
Видеокодек: XviD
Битрейт видео: ~1604 kbps
Размер кадра: 704x400
Аудио 1: AC3, 2 ch, 192 kbps, 48 kHz (русский)
Аудио 2: AC3, 6 ch, 320 kbps, 48 kHz (английский)

MediaInfo

Общее
Формат                                   : AVI
Формат/Информация                        : Audio Video Interleave
Профиль формата                          : OpenDML
Настройки формата                        : rec
Размер файла                             : 1,39 Гбайт
Продолжительность                        : 1 ч. 33 м.
Общий поток                              : 2123 Кбит/сек
Программа кодирования                    : AVI-Mux GUI 1.17.8.3, Feb 16 201019:42:50
Видео
Идентификатор                            : 0
Формат                                   : MPEG-4 Visual
Профиль формата                          : Advanced [email protected]
Параметр BVOP формата                    : 4
Параметр QPel формата                    : Нет
Параметр GMC формата                     : Без точки перехода
Параметр матрицы формата                 : Default (MPEG)
Идентификатор кодека                     : XVID
Идентификатор кодека/Подсказка           : XviD
Продолжительность                        : 1 ч. 33 м.
Битрейт                                  : 1604 Кбит/сек
Ширина                                   : 704 пикселя
Высота                                   : 400 пикселей
Соотношение сторон                       : 16:9
Частота кадров                           : 23,976 кадра/сек
Цветовое пространство                    : YUV
Субдискретизация насыщенности            : 4:2:0
Битовая глубина                          : 8 бит
Тип развёртки                            : Прогрессивная
Метод сжатия                             : С потерями
Бит/(Пиксели*Кадры)                      : 0.238
Размер потока                            : 1,05 Гбайт (76%)
Библиотека кодирования                   : XviD 1.2.1 (UTC 2008-12-04)
Аудио #1
Идентификатор                            : 1
Формат                                   : AC-3
Формат/Информация                        : Audio Coding 3
Расширение режима                        : CM (complete main)
Параметр Endianness формата              : Big
Идентификатор кодека                     : 2000
Продолжительность                        : 1 ч. 33 м.
Вид битрейта                             : Постоянный
Битрейт                                  : 192 Кбит/сек
Каналы                                   : 2 канала
Расположение каналов                     : Front: L R
Частота                                  : 48,0 КГц
Битовая глубина                          : 16 бит
Метод сжатия                             : С потерями
Размер потока                            : 128 Мбайт (9%)
Выравнивание                             : Соединение по промежуткам
Продолжительность промежутка             : 64  мс. (1,53 видеокадра)
Время предзагрузки промежутка            : 192  мс.
Аудио #2
Идентификатор                            : 2
Формат                                   : AC-3
Формат/Информация                        : Audio Coding 3
Расширение режима                        : CM (complete main)
Параметр Endianness формата              : Big
Идентификатор кодека                     : 2000
Продолжительность                        : 1 ч. 33 м.
Вид битрейта                             : Постоянный
Битрейт                                  : 320 Кбит/сек
Каналы                                   : 6 каналов
Расположение каналов                     : Front: L C R, Side: L R, LFE
Частота                                  : 48,0 КГц
Битовая глубина                          : 16 бит
Метод сжатия                             : С потерями
Размер потока                            : 214 Мбайт (15%)
Выравнивание                             : Соединение по промежуткам
Продолжительность промежутка             : 64  мс. (1,53 видеокадра)
Время предзагрузки промежутка            : 192  мс.

Скриншоты


Яндекс.Метрика
Рейтинг@Mail.ru