[ Сегодня на трекере фрилич! Идет свободное скачивание без начисления Download ]

Подозреваемый / В поле зрения / Person of Interest (Сезон: 3 / Серии: 1-23 из 23) (Ричард Дж. Льюис / Richard J. Lewis) [2013-2014 гг., Боевик, триллер, драма, детектив, WEB-DL, 720p] MVO (NewStudio) + Original (Eng)

 

Создавать темы 28-Май-2014 07:15

Подозреваемый / В поле зрения / Person of Interest«Ever think you're being watched?» -Производство: США, Kilter Films, Bad Robot, Warner Bros. Television
Жанр: Боевик, триллер, драма, детектив
Год выпуска: 2013-2014 гг.
Продолжительность: 23 серии по ~00:43:39
Мировая премьера: 22 сентября 2011
Российская премьера: 8 января 2013
Перевод: Профессиональный (многоголосый, закадровый) [NewStudio]
Оригинальный аудиопоток: английский-Режиссер: Ричард Дж. Льюис / Richard J. Lewis, Джеффри Дж. Хант / Jeffrey G. Hunt
Сценарий: Джонатан Нолан, Аманда Сегел Маркс, Патрик Харбинсон
Продюсер: Джей Джей Абрамс, Брайан Берк, Кэти Линг
Оператор: Теодоро Маньячи, Стивен МакНатт, Мануэль Биллетер
Композитор: Рамин Джавади
Художник: Дэн Ли, Рик Батлер, Калина Иванов
Монтаж: Рэй Дэниелс III, Марк Конте, Скотт Лернер-В ролях: Джеймс Кэвизел, Майкл Эмерсон, Кевин Чэпмен, Тараджи П. Хенсон, Эми Экер, Роберт Джон Бёрк, Эл Сапьенза, Энрико Колантони, Бреннан Браун, Бретт Каллен-Описание: Мистер Финч — загадочный миллиардер, разработавший компьютерную программу, которая предсказывает будущих жертв преступлений. Финч нанимает Риза — бывшего агента ЦРУ, предполагаемо, мертвого, чтобы помочь остановить эти преступления, используя ресурсы и технику Финча, и навыки и знания Риза.-Качество видео: WEB-DL
Контейнер: MKV
Стандарт разрешения: 720p
Видео кодек: H.264
Аудио кодек: AC3
Видео: 1280*720 (16:9); 3804 Кбит/сек; 23,976 кадров/сек; AVC; 0.183 бит/пиксель
Аудио: Русский; 384 Кбит/сек; 48,0 КГц; 16 бит; 6 каналов; АС-3
Аудио #2: Английский; 384 Кбит/сек; 48,0 КГц; 16 бит; 6 каналов; АС-3
Cубтитры: отсутствуют

Список серий

  • Свобода (Liberty)
  • Нечего скрывать (Nothing to Hide)
  • Дамский убийца (Lady Killer)
  • Обоснованное сомнение (Reasonable Doubt)
  • Разговор (Razgovor)
  • Внезапная смерть (Mors Praematura)
  • Идеальная цена (The Perfect Mark)
  • Закончить партию (Endgame)
  • Переправа (The Crossing)
  • Жребий дьявола (The Devil's Share)
  • Амнезия (Lethe)
  • Прозрение (Aletheia)
  • 4C
  • Provenance
  • Последний звонок (Last Call)
  • Оперативная память (RAM)
  • Корневой каталог (Root Path)
  • Верность (Allegiance)
  • Наиболее вероятно, что... (Most Likely to...)
  • Пособие по смерти (Death Benefit)
  • Бета-тест (Beta)
  • Дом разделённый (A House Divided)
  • Бог из машины (Deus Ex Machina)

Media Info

Общее
Уникальный идентификатор : 233152444489770496781851628682473705404 (0xAF678706A294243B97D77617B7750FBC)
Формат : Matroska
Версия формата : Version 2
Размер файла : 1,42 Гбайт
Продолжительность : 43 м.
Общий поток : 4665 Кбит/сек
Дата кодирования : UTC 2013-09-26 14:57:38
Программа кодирования : mkvmerge v2.9.9 ('Tutu') built on Nov 25 2009 21:13:32
Библиотека кодирования : libebml v0.7.9 + libmatroska v0.8.1
Видео
Идентификатор : 1
Формат : AVC
Формат/Информация : Advanced Video Codec
Профиль формата : [email protected]
Параметр CABAC формата : Нет
Параметр ReFrames формата : 2 кадра
Идентификатор кодека : V_MPEG4/ISO/AVC
Продолжительность : 43 м.
Битрейт : 3804 Кбит/сек
Ширина : 1280 пикселей
Высота : 720 пикселей
Соотношение сторон : 16:9
Режим частоты кадров : Постоянный
Частота кадров : 23,976 кадра/сек
Цветовое пространство : YUV
Субдискретизация насыщенности : 4:2:0
Битовая глубина : 8 бит
Тип развёртки : Прогрессивная
Бит/(Пиксели*Кадры) : 0.172
Размер потока : 1,16 Гбайт (82%)
Язык : English
Default : Нет
Forced : Нет
Основные цвета : BT.709
Характеристики трансфера : BT.709
Коэффициенты матрицы : BT.709
Аудио #1
Идентификатор : 2
Формат : AC-3
Формат/Информация : Audio Coding 3
Расширение режима : CM (complete main)
Параметр Endianness формата : Big
Идентификатор кодека : A_AC3
Продолжительность : 43 м.
Вид битрейта : Постоянный
Битрейт : 384 Кбит/сек
Каналы : 6 каналов
Расположение каналов : Front: L C R, Side: L R, LFE
Частота : 48,0 КГц
Битовая глубина : 16 бит
Метод сжатия : С потерями
Размер потока : 120 Мбайт (8%)
Язык : Russian
Default : Да
Forced : Да
Аудио #2
Идентификатор : 3
Формат : AC-3
Формат/Информация : Audio Coding 3
Расширение режима : CM (complete main)
Параметр Endianness формата : Big
Идентификатор кодека : A_AC3
Продолжительность : 43 м.
Вид битрейта : Постоянный
Битрейт : 384 Кбит/сек
Каналы : 6 каналов
Расположение каналов : Front: L C R, Side: L R, LFE
Частота : 48,0 КГц
Битовая глубина : 16 бит
Метод сжатия : С потерями
Размер потока : 120 Мбайт (8%)
Язык : English
Default : Нет
Forced : Нет

Скриншот c названием фильма

Скриншоты

Яндекс.Метрика
Рейтинг@Mail.ru