Небраска / Nebraska (Александр Пэйн / Alexander Payne) [2013 г., драма, BDRip-AVC] VO [Doctor Joker] + Original (Eng) + Sub (Rus, Eng) [Jolly Roger]

 

Создавать темы 28-Май-2014 07:13

-Небраска / Nebraska- Год выпуска: 2013 г.
Производство: США
Жанр: драма
Продолжительность: 01:54:43
Перевод: Любительский (одноголосый, закадровый) [Doctor Joker]
Оригинальный аудиопоток: английский
Режиссер: Александр Пэйн / Alexander Payne
В ролях: Брюс Дерн, Уилл Форте, Джун Скуиб, Боб Оденкёрк, Стейси Кич, Мэри Луиза Уилсон, Рэнс Ховард, Тим Дрисколл, Девин Рэтрей, Анджела МакЭван
Описание: Вудроу Т. Грант получил письмо счастья. И поверил в него. Ну, а что взять с Вудроу? Он уже старый, у него начинается Альцгеймер, он алкоголик… Вот Вуди и отправляется в город Линкольн, штат Небраска, чтобы получить «обещанный» письмом счастья 1.000.000 долларов. А поможет ему в этом сын по имени Дэвид, который хоть и понимает, что это «разводка», но хочет подарить своему отцу немножко счастья. Качество видео: BDRip-AVC
Контейнер: MKV
Видео кодек: H.264
Аудио кодек: AC3
Видео: MPEG4 Video (H264) 960x400 23.976fps 1881 Kbps
Аудио #1, 2: Dolby AC3 48000Hz stereo 192 Kbps / Русский / Английский
Субтитры: русские, английские (отключаемые)

Награды

Оскар, 2014 год
Номинации (6):
Лучший фильм
Лучшая мужская роль (Брюс Дерн)
Лучшая женская роль второго плана (Джун Скуиб)
Лучший режиссер (Александр Пэйн)
Лучший сценарий
Лучшая работа оператора
Золотой глобус, 2014 год
Номинации (5):
Лучший фильм (комедия или мюзикл)
Лучшая мужская роль (комедия или мюзикл) (Брюс Дерн)
Лучшая женская роль второго плана (Джун Скуиб)
Лучший режиссер (Александр Пэйн)
Лучший сценарий

Британская академия, 2014 год

Номинации (3):
Лучшая мужская роль (Брюс Дерн)
Лучший оригинальный сценарий
Лучшая работа оператора (Фидон Папамайкл)
Премия Гильдии актеров, 2014 год
Номинации (2):
Лучшая мужская роль (Брюс Дерн)
Лучшая женская роль второго плана (Джун Скуиб)
Каннский кинофестиваль, 2013 год
Победитель (1):
Лучшая мужская роль (Брюс Дерн)
Номинации (1):
Золотая пальмовая ветвь

Media Info / x.264

Log 2-nd pass

x264 [info]: using SAR=1/1
x264 [info]: using cpu capabilities: MMX2 SSE2Fast SSSE3 Cache64 SlowShuffle
x264 [info]: profile Main, level 4.1
x264 [info]: frame I:1018 Avg QP:12.99 size: 82993
x264 [info]: frame P:30779 Avg QP:15.90 size: 28801
x264 [info]: frame B:133244 Avg QP:19.18 size: 4858
x264 [info]: consecutive B-frames: 1.0% 1.0% 2.4% 11.5% 17.5% 46.4% 20.2%
x264 [info]: mb I I16..4: 27.7% 0.0% 72.3%
x264 [info]: mb P I16..4: 9.0% 0.0% 0.0% P16..4: 37.2% 29.0% 17.4% 0.0% 0.0% skip: 7.3%
x264 [info]: mb B I16..4: 2.0% 0.0% 0.0% B16..8: 26.4% 10.6% 2.3% direct: 5.5% skip:53.2% L0:40.8% L1:27.9% BI:31.3%
x264 [info]: direct mvs spatial:97.8% temporal:2.2%
x264 [info]: coded y,uvDC,uvAC intra: 90.4% 0.0% 0.0% inter: 25.2% 0.0% 0.0%
x264 [info]: i16 v,h,dc,p: 11% 11% 43% 36%
x264 [info]: i4 v,h,dc,ddl,ddr,vr,hd,vl,hu: 20% 17% 11% 6% 9% 8% 8% 8% 11%
x264 [info]: i8c dc,h,v,p: 100% 0% 0% 0%
x264 [info]: Weighted P-Frames: Y:5.1% UV:0.0%
x264 [info]: ref P L0: 36.2% 11.8% 30.6% 7.7% 13.3% 0.3% 0.0%
x264 [info]: ref B L0: 64.6% 26.1% 6.8% 2.5%
x264 [info]: ref B L1: 91.5% 8.5%
x264 [info]: kb/s:1880.63
x264 [total]: encoded 165041 frames, 1.94 fps, 1880.63 kb/s
General
Unique ID : 176491705653215817291686183524911809513 (0x84C710EAF833B795A0F87330C76403E9)
Complete name : I:\Nebraska.2013.H.264.BDRip-AVC.JRG.mkv
Format : Matroska
Format version : Version 4 / Version 2
File size : 1.82 GiB
Duration : 1h 54mn
Overall bit rate : 2 267 Kbps
Movie name : The Jolly Roger Release Group by http://Pirat.CA
Encoded date : UTC 2014-05-27 19:37:21
Writing application : mkvmerge v6.9.1 ('Blue Panther') 32bit built on Apr 18 2014 18:15:44
Writing library : libebml v1.3.0 + libmatroska v1.4.1
Video
ID : 1
Format : AVC
Format/Info : Advanced Video Codec
Format profile : [email protected]
Format settings, CABAC : Yes
Format settings, ReFrames : 5 frames
Codec ID : V_MPEG4/ISO/AVC
Duration : 1h 54mn
Bit rate : 1 881 Kbps
Width : 960 pixels
Height : 400 pixels
Display aspect ratio : 2.40:1
Frame rate mode : Constant
Frame rate : 23.976 fps
Color space : YUV
Chroma subsampling : 4:2:0
Bit depth : 8 bits
Scan type : Progressive
Bits/(Pixel*Frame) : 0.204
Stream size : 1.47 GiB (81%)
Writing library : x264 core 130 r2273 b3065e6
Encoding settings : cabac=1 / ref=5 / deblock=1:-1:-1 / analyse=0x1:0x110 / me=umh / subme=10 / psy=0 / mixed_ref=1 / me_range=24 / chroma_me=1 / trellis=2 / 8x8dct=0 / cqm=0 / deadzone=21,11 / fast_pskip=0 / chroma_qp_offset=0 / threads=3 / lookahead_threads=1 / sliced_threads=0 / nr=0 / decimate=1 / interlaced=0 / bluray_compat=0 / constrained_intra=0 / bframes=6 / b_pyramid=2 / b_adapt=2 / b_bias=0 / direct=3 / weightb=1 / open_gop=0 / weightp=2 / keyint=250 / keyint_min=23 / scenecut=40 / intra_refresh=0 / rc_lookahead=50 / rc=2pass / mbtree=1 / bitrate=1881 / ratetol=1.0 / qcomp=0.60 / qpmin=0 / qpmax=69 / qpstep=4 / cplxblur=20.0 / qblur=0.5 / ip_ratio=1.40 / aq=1:1.00
Language : English
Default : Yes
Forced : No
Audio #1
ID : 2
Format : AC-3
Format/Info : Audio Coding 3
Mode extension : CM (complete main)
Format settings, Endianness : Big
Codec ID : A_AC3
Duration : 1h 54mn
Bit rate mode : Constant
Bit rate : 192 Kbps
Channel(s) : 2 channels
Channel positions : Front: L R
Sampling rate : 48.0 KHz
Bit depth : 16 bits
Compression mode : Lossy
Stream size : 158 MiB (8%)
Language : Russian
Default : Yes
Forced : No
Audio #2
ID : 3
Format : AC-3
Format/Info : Audio Coding 3
Mode extension : CM (complete main)
Format settings, Endianness : Big
Codec ID : A_AC3
Duration : 1h 54mn
Bit rate mode : Constant
Bit rate : 192 Kbps
Channel(s) : 2 channels
Channel positions : Front: L R
Sampling rate : 48.0 KHz
Bit depth : 16 bits
Compression mode : Lossy
Stream size : 158 MiB (8%)
Language : English
Default : No
Forced : No
Text #1
ID : 4
Format : UTF-8
Codec ID : S_TEXT/UTF8
Codec ID/Info : UTF-8 Plain Text
Language : Russian
Default : No
Forced : No
Text #2
ID : 5
Format : UTF-8
Codec ID : S_TEXT/UTF8
Codec ID/Info : UTF-8 Plain Text
Language : English
Default : No
Forced : No

Скриншоты

Яндекс.Метрика
Рейтинг@Mail.ru