13/13/13 / Day of the Demons (2013) BDRip 720p | L1

 

Создавать темы 26-Май-2014 11:41

13/13/13 / Day of the Demons
Год выхода: 2013
Жанр: ужасы
Режиссер: Джеймс Каллен Брэссак
В ролях: Траэ Айрлэнд, Эрин Кокер, Джоди Бартон, Калико Купер, Тиффани Мартинез, Джаред Кон, Дж. Скотт, Билл Вурис, Грег Депетро, Джон Эндрю Ваас
Описание:
Для нового тысячелетия в календари добавлялся один день каждые четыре года. В следствие чего, античный календарь Майя был нарушен. И сейчас в 13 месяце 13 года нового тысячелетия, несколько выживших должны сразиться с миром демонов.

Выпущено: США
Продолжительность: 01:30:59
Озвучивание: Любительское (одноголосое) [VANO]
Файл
Формат: MKV
Качество: BDRip 720p [iFPD]
Видео: 3701 kb/s, 1280x720
Аудио: Russian: AC3, 192 kb/s (2 ch) / English: DTS, 1510 kb/s (6 ch)
Субтитры: English
Дополнительно: Сохранены оригинальные чаптеры как на Blu-Ray
Скачать: Сэмпл

Скриншоты:

NFO

Общее
Day.of.the.Demons.2013.Blu.Ray.720p.mkv
Формат : Matroska
Версия формата : Version 4 / Version 2
Размер файла : 2,65 Гбайт
Продолжительность : 1 ч. 24 м.
Общий поток : 4491 Кбит/сек
Название фильма : Release Group
Дата кодирования : UTC 2014-05-25 19:45:16
Программа кодирования : mkvmerge v6.9.1 ('Blue Panther') 64bit built on Apr 18 2014 18:23:38
Библиотека кодирования : libebml v1.3.0 + libmatroska v1.4.1
Видео
Идентификатор : 1
Формат : AVC
Формат/Информация : Advanced Video Codec
Профиль формата : [email protected]
Параметр CABAC формата : Да
Параметр ReFrames формата : 5 кадров
Идентификатор кодека : V_MPEG4/ISO/AVC
Продолжительность : 1 ч. 24 м.
Битрейт : 3701 Кбит/сек
Ширина : 1280 пикселей
Высота : 720 пикселей
Соотношение сторон : 16:9
Режим частоты кадров : Постоянный
Частота кадров : 23,976 кадра/сек
Цветовое пространство : YUV
Субдискретизация насыщенности : 4:2:0
Битовая глубина : 8 бит
Тип развёртки : Прогрессивная
Бит/(Пиксели*Кадры) : 0.122
Размер потока : 1,59 Гбайт (60%)
Заголовок : Release Group
Библиотека кодирования : x264 core 142 r2431 ac76440
Настройки программы : cabac=1 / ref=5 / deblock=1:-3:-3 / analyse=0x3:0x113 / me=umh / subme=7 / psy=1 / psy_rd=1.00:0.15 / mixed_ref=1 / me_range=16 / chroma_me=1 / trellis=1 / 8x8dct=1 / cqm=0 / deadzone=21,11 / fast_pskip=0 / chroma_qp_offset=-3 / threads=12 / lookahead_threads=2 / sliced_threads=0 / nr=0 / decimate=1 / interlaced=0 / bluray_compat=0 / constrained_intra=0 / bframes=3 / b_pyramid=2 / b_adapt=1 / b_bias=0 / direct=3 / weightb=1 / open_gop=0 / weightp=2 / keyint=250 / keyint_min=23 / scenecut=40 / intra_refresh=0 / rc_lookahead=40 / rc=crf / mbtree=1 / crf=20.0 / qcomp=0.60 / qpmin=0 / qpmax=69 / qpstep=4 / ip_ratio=1.40 / aq=1:1.00
Default : Да
Forced : Нет
Аудио #1
Идентификатор : 2
Формат : AC-3
Формат/Информация : Audio Coding 3
Расширение режима : CM (complete main)
Параметр Endianness формата : Big
Идентификатор кодека : A_AC3
Продолжительность : 1 ч. 24 м.
Вид битрейта : Постоянный
Битрейт : 192 Кбит/сек
Каналы : 2 канала
Расположение каналов : Front: L R
Частота : 48,0 КГц
Битовая глубина : 16 бит
Метод сжатия : С потерями
Размер потока : 116 Мбайт (4%)
Заголовок : VANO
Язык : Russian
Default : Да
Forced : Да
Аудио #2
Идентификатор : 3
Формат : DTS
Формат/Информация : Digital Theater Systems
Режим : 16
Параметр Endianness формата : Big
Идентификатор кодека : A_DTS
Продолжительность : 1 ч. 24 м.
Вид битрейта : Постоянный
Битрейт : 1509 Кбит/сек
Каналы : 6 каналов
Расположение каналов : Front: L C R, Side: L R, LFE
Частота : 48,0 КГц
Битовая глубина : 16 бит
Метод сжатия : С потерями
Размер потока : 911 Мбайт (34%)
Язык : English
Default : Нет
Forced : Нет
Текст
Идентификатор : 4
Формат : UTF-8
Идентификатор кодека : S_TEXT/UTF8
Идентификатор кодека/Информация : UTF-8 Plain Text
Язык : English
Default : Нет
Forced : Нет
Меню
00:00:00.000 : en:Chapter 01
00:09:59.974 : en:Chapter 02
00:19:59.990 : en:Chapter 03
00:29:59.964 : en:Chapter 04
00:39:59.980 : en:Chapter 05
00:49:59.997 : en:Chapter 06
00:59:59.971 : en:Chapter 07
01:09:59.987 : en:Chapter 08
01:19:59.961 : en:Chapter 09
Яндекс.Метрика
Рейтинг@Mail.ru