Гнев / Wrath (2011) BDRip 720p | P | Лицензия

 

Создавать темы 26-Май-2014 11:37

Гнев / Wrath
Год выхода: 2011
Жанр: ужасы, триллер
Режиссер: Джонатан Нил Диксон
В ролях: Луиз Джанелл Бартлетт, Бианка Бради, Джазз Кон, Майкл Каллен, Стэф Даусон, Уильям Эммонс, Аллен Еннев, Чарли Фолкнер, Ксавьер Фернандез, Кори Пейдж
О фильме:
Идеальным австралийским утром влюбленная пара Кэролайн и Мэтью отправляются в путь из небольшого придорожного мотеля вместе с двумя близкими друзьями. Их путешествие на юг к побережью проходит через отдаленные территории, где герои фильма сталкиваются с незнакомкой, отчаянно нуждающейся в помощи.
Встреча с ней становится началом шокирующих жутких событий, безжалостной игрой в кошки-мышки, в которой персонажи триллера «Гнев» становятся жертвами трех неизвестных мужчин, после чего ничто и никогда уже не будет таким, как прежде.

Выпущено: Австралия
Продолжительность: 01:37:45
Озвучивание: Профессиональное (многоголосое) [Лицензия]
Файл
Формат: MKV
Качество: BDRip 720p [ENCOUNTERS]
Видео: 3535 kb/s, 1280x544
Аудио: Russian: AC3, 448 kb/s (6 ch) / English: DTS, 1510 kb/s (6 ch)
Дополнительно: Сохранены оригинальные чаптеры как на Blu-Ray
Скачать: Сэмпл

Скриншоты:

NFO

Общее
Wrath.2011.Blu.Ray.720p.mkv
Формат : Matroska
Версия формата : Version 4 / Version 2
Размер файла : 2,43 Гбайт
Продолжительность : 1 ч. 37 м.
Общий поток : 3562 Кбит/сек
Название фильма : Release Group
Дата кодирования : UTC 2014-05-25 21:56:57
Программа кодирования : mkvmerge v6.9.1 ('Blue Panther') 64bit built on Apr 18 2014 18:23:38
Библиотека кодирования : libebml v1.3.0 + libmatroska v1.4.1
Видео
Идентификатор : 1
Формат : AVC
Формат/Информация : Advanced Video Codec
Профиль формата : [email protected]
Параметр CABAC формата : Да
Параметр ReFrames формата : 5 кадров
Идентификатор кодека : V_MPEG4/ISO/AVC
Продолжительность : 1 ч. 37 м.
Битрейт : 3535 Кбит/сек
Ширина : 1280 пикселей
Высота : 544 пикселя
Соотношение сторон : 2,35:1
Режим частоты кадров : Постоянный
Частота кадров : 23,976 кадра/сек
Цветовое пространство : YUV
Субдискретизация насыщенности : 4:2:0
Битовая глубина : 8 бит
Тип развёртки : Прогрессивная
Бит/(Пиксели*Кадры) : 0.092
Размер потока : 1,05 Гбайт (43%)
Заголовок : Release Group
Библиотека кодирования : x264 core 142 r2431 ac76440
Настройки программы : cabac=1 / ref=5 / deblock=1:-1:-1 / analyse=0x3:0x133 / me=umh / subme=7 / psy=1 / psy_rd=1.00:0.15 / mixed_ref=1 / me_range=16 / chroma_me=1 / trellis=1 / 8x8dct=1 / cqm=0 / deadzone=21,11 / fast_pskip=0 / chroma_qp_offset=-3 / threads=9 / lookahead_threads=1 / sliced_threads=0 / nr=0 / decimate=1 / interlaced=0 / bluray_compat=0 / constrained_intra=0 / bframes=3 / b_pyramid=2 / b_adapt=1 / b_bias=0 / direct=1 / weightb=1 / open_gop=0 / weightp=2 / keyint=250 / keyint_min=23 / scenecut=40 / intra_refresh=0 / rc_lookahead=40 / rc=crf / mbtree=1 / crf=20.0 / qcomp=0.60 / qpmin=0 / qpmax=69 / qpstep=4 / ip_ratio=1.40 / aq=1:1.00
Default : Да
Forced : Нет
Аудио #1
Идентификатор : 2
Формат : AC-3
Формат/Информация : Audio Coding 3
Расширение режима : CM (complete main)
Параметр Endianness формата : Big
Идентификатор кодека : A_AC3
Продолжительность : 1 ч. 37 м.
Вид битрейта : Постоянный
Битрейт : 448 Кбит/сек
Каналы : 6 каналов
Расположение каналов : Front: L C R, Side: L R, LFE
Частота : 48,0 КГц
Битовая глубина : 16 бит
Метод сжатия : С потерями
Размер потока : 313 Мбайт (13%)
Заголовок : Лицензия
Язык : Russian
Default : Да
Forced : Да
Аудио #2
Идентификатор : 3
Формат : DTS
Формат/Информация : Digital Theater Systems
Режим : 16
Параметр Endianness формата : Big
Идентификатор кодека : A_DTS
Продолжительность : 1 ч. 37 м.
Вид битрейта : Постоянный
Битрейт : 1509 Кбит/сек
Каналы : 6 каналов
Расположение каналов : Front: L C R, Side: L R, LFE
Частота : 48,0 КГц
Битовая глубина : 16 бит
Метод сжатия : С потерями
Размер потока : 1,03 Гбайт (42%)
Язык : English
Default : Нет
Forced : Нет
Меню
00:00:00.000 : en:00:00:00.000
00:14:44.300 : en:00:14:44.300
00:21:50.768 : en:00:21:50.768
00:40:58.456 : en:00:40:58.456
00:49:50.321 : en:00:49:50.321
00:59:05.000 : en:00:59:05.000
01:09:51.771 : en:01:09:51.771
01:28:40.732 : en:01:28:40.732
Яндекс.Метрика
Рейтинг@Mail.ru