[ Сегодня на трекере фрилич! Идет свободное скачивание без начисления Download ]

(Gothic/Doom) Crimson Swan - Icon (EP) - 2012, FLAC (image+.cue), lossless

 

Создавать темы 26-Май-2014 06:48

Crimson Swan - Icon
Страна: Germany
Жанр: Gothic/Doom Metal
Год издания: 2012
Производитель диска: Aerion Records [AR-13-01]
Аудиокодек: FLAC (*.flac)
Тип рипа: image+.cue
Битрейт аудио: lossless
Продолжительность: 0:29:31
Источник: Original CD-R
Сканы: да
Треклист:
01. Intro (Sfinte Dumnezeule) (1:47)
02. Defiance (7:03)
03. When Angels Fall (6:03)
04. Onto This Silvery Path (7:10)
05. These Days of Distress (Echoes Pt.3) (7:29)

Info

Original CD-R limited to 100 copies

Отчёт ЕАС

Exact Audio Copy V1.0 beta 3 from 29. August 2011
EAC extraction logfile from 20. May 2014, 19:54
Crimson Swan / Icon
Used drive : ASUS DRW-1612BL Adapter: 2 ID: 0
Read mode : SecureUtilize accurate stream : YesDefeat audio cache : YesMake use of C2 pointers : No
Read offset correction : 6Overread into Lead-In and Lead-Out : NoFill up missing offset samples with silence : YesDelete leading and trailing silent blocks : NoNull samples used in CRC calculations : YesUsed interface : Installed external ASPI interface
Used output format : User Defined EncoderSelected bitrate : 128 kBit/sQuality : HighAdd ID3 tag : NoCommand line compressor : C:\Program Files\EAC\Exact Audio Copy\Flac\flac.exeAdditional command line options : -V -8 -T "Date=%year%" -T "Genre=%genre%" %source%
TOC of the extracted CD
Track | Start | Length | Start sector | End sector --------------------------------------------------------- 1 | 0:00.00 | 1:46.70 | 0 | 8019 2 | 1:46.70 | 7:02.39 | 8020 | 39708 3 | 8:49.34 | 6:03.00 | 39709 | 66933 4 | 14:52.34 | 7:10.36 | 66934 | 99219 5 | 22:02.70 | 7:28.38 | 99220 | 132857
Range status and errors
Selected range
Filename C:\darkbrides\Crimson Swan - Icon.wav
Peak level 100.0 % Extraction speed 6.8 X Range quality 100.0 % Test CRC 504BD975 Copy CRC 504BD975 Copy OK
No errors occurred
AccurateRip summary
Track 1 not present in databaseTrack 2 not present in databaseTrack 3 not present in databaseTrack 4 not present in databaseTrack 5 not present in database
None of the tracks are present in the AccurateRip database
End of status report
==== Log checksum 05115E2C83450D35803F31F48A12748CDF5B1C7823F720BD70A213FA4E3F7B63 ====
-
Яндекс.Метрика
Рейтинг@Mail.ru