Хоккей. Чемпионат Мира-2014. Финал. Россия - Финляндия (2014.05.25) HDTVRip

 

Создавать темы 26-Май-2014 05:36

- Хоккей. Чемпионат Мира-2014. Финал. Россия - Финляндия (2014.05.25) HDTVRip - Режиссер / Телекомпания: Первый канал HD
Русское название: Хоккей. Чемпионат Мира-2014. Финал. Россия - Финляндия
Год выпуска: 2014
Жанр: Спорт, хоккей
Выпущено: Россия
Описание:
Вот и наступил самый долгожданный день для всех поклонников хоккея. В финале Чемпионата Мира, что проходит в Минске встретятся две сильнейшие сборные, которые сумели пробиться через все свои преграды и добраться до главного матча. Россия сразится с Финляндией. Наши с вами соотечественники буквально катком прошлись по всем противникам, досрочно выиграв свою отборочную группу В, закончив группой этап со 100%-м показателем побед. Кроме того коллектив Олега Знарока имеет лучшую разницу забитых и пропущенных шайб на турнире. В плей-офф российской дружине так же не было равных. В 1/4 финала была сражена команда Франции (3:0, а в полуфинале преодолены шведы (3:1). А вот у Финляндии такого потрясающего пути не было. Они заняли последнее четвертое место (позволяющее пробиться в следующую часть турнира), лишь в последнем туре обеспечив себе участие в четвертьфинале, где они выбили одного из главных претендентов на титул - сборную Канады. После этого в 1/2 их ждал не менее амбициозный соперник - чешская сборная, которая в конечном итоге не смогла совершенно ничего противопоставить подопечным Эркка Вестерлунда. Предстоящий матч, как и все остальные, состоится на "Арене-Минск". Явным фаворитом выглядит сборная России, но перед подобным состязанием необходимо забыть о всем, что было до него и полностью сконцентрироваться на предстоящих периодах.
Комментатор: Андрей Голованов, Виктор Гусев
Продолжительность: 02:18:39
Видеокодек: Xvid
Битрейт видео: ~1900 Кбит/сек
Размер кадра: 720 x 400
Качество видео: HDTVRip
Аудиокодек: AC-3, 2ch.
Битрейт аудио: 192 Кбит/сек

MediaInfo:

Формат : AVI
Формат/Информация : Audio Video Interleave
Профиль формата : OpenDML
Размер файла : 2,04 Гбайт
Продолжительность : 2 ч. 18 м.
Общий поток : 2105 Кбит/сек
Библиотека кодирования : VirtualDub build 32507/release
Видео
Идентификатор : 0
Формат : MPEG-4 Visual
Профиль формата : Advanced [email protected]
Параметр BVOP формата : 2
Параметр QPel формата : Нет
Параметр GMC формата : Без точки перехода
Параметр матрицы формата : Default (H.263)
Режим смешивания : Сжатый битовый поток
Идентификатор кодека : XVID
Идентификатор кодека/Подсказка : XviD
Продолжительность : 2 ч. 18 м.
Битрейт : 1900 Кбит/сек
Ширина : 720 пикселей
Высота : 400 пикселей
Соотношение сторон : 16:9
Частота кадров : 25,000 кадров/сек
Цветовое пространство : YUV
Субдискретизация насыщенности : 4:2:0
Битовая глубина : 8 бит
Тип развёртки : Прогрессивная
Метод сжатия : С потерями
Бит/(Пиксели*Кадры) : 0.264
Размер потока : 1,84 Гбайт (90%)
Библиотека кодирования : XviD 1.2.1 (UTC 2008-12-04)
Аудио
Идентификатор : 1
Формат : AC-3
Формат/Информация : Audio Coding 3
Расширение режима : CM (complete main)
Идентификатор кодека : 2000
Продолжительность : 2 ч. 18 м.
Вид битрейта : Постоянный
Битрейт : 192 Кбит/сек
Каналы : 2 канала
Расположение каналов : Front: L R
Частота : 48,0 КГц
Битовая глубина : 16 бит
Метод сжатия : С потерями
Размер потока : 190 Мбайт (9%)
Выравнивание : Разделение по промежуткам
Продолжительность промежутка : 40 мс. (1,00 видеокадр)
Время предзагрузки промежутка : 512 мс.
Скриншоты:
Время раздачи: 24/7. До первых 5 скачавших.
Rip by olegka7373
Яндекс.Метрика
Рейтинг@Mail.ru