[ Сегодня на трекере фрилич! Идет свободное скачивание без начисления Download ]

Дворецкий / The Butler (Ли Дэниелс / Lee Daniels) [2013 г., Драма, биография, BDRip] MVO [Лицензия]

 

Создавать темы 26-Май-2014 05:18

-Дворецкий / The Butler- Производство: США, Laura Ziskin Productions, Salloway Rubenstein Productions
Год выпуска: 2013 г.
Жанр: Драма, биография
Продолжительность: 02:12:06
Мировая премьера: 5 августа 2013
Дата выхода DVD: 27 мая 2014, «Lizard Cinema Trade»
Дата выхода Blu-Ray: 27 мая 2014, «Lizard Cinema Trade»-Перевод: Профессиональный (многоголосый, закадровый) [Лицензия]-Режиссер: Ли Дэниелс / Lee Daniels
В ролях: Форест Уитакер, Опра Уинфри, Джон Кьюсак, Джейн Фонда, Терренс Ховард, Кьюба Гудинг мл., Ленни Кравиц, Дэвид Ойелоуо, Ванесса Редгрейв, Алан Рикман-Описание: История в этом фильме расскажет нам реально происходившую историю человека по имени Юджин Аллен, который служил при дворе Белого Дома в должности дворецкого при восьми президентах Соединенных Штатов Америки. Фильм расскажет о нелегкой жизни темнокожих американцев и на контрасте покажет происходящее в самом Белом Доме и в то же время, что происходит на улицах, где темнокожее население всячески пытается утвердиться и самореализоваться в враждебно настроенном против них обществе..- -Качество видео: BDRip
Контейнер: AVI
Видео кодек: XviD
Аудио кодек: MP3
Видео: 720x384 (1.88:1), 23.976 fps, XviD build 73 ~1441 kbps avg, 0.22 bit/pixel
Аудио: 48 kHz, MPEG Layer 3, 2 ch, ~128.00 kbps avg
Cубтитры: отсутствуют

Media Info

General
Complete name : D:\Dvoretskiy.2013.P.BDRip.avi
Format : AVI
Format/Info : Audio Video Interleave
File size : 1.46 GiB
Duration : 2h 12mn
Overall bit rate : 1 579 Kbps
Writing application : VirtualDubModRus 1.5.10.2 (build 2542/release)
Writing library : VirtualDubMod build 2542/release
Video
ID : 0
Format : MPEG-4 Visual
Format profile : Advanced [email protected]
Format settings, BVOP : 1
Format settings, QPel : No
Format settings, GMC : No warppoints
Format settings, Matrix : Custom
Codec ID : XVID
Codec ID/Hint : XviD
Duration : 2h 12mn
Bit rate : 1 442 Kbps
Width : 720 pixels
Height : 384 pixels
Display aspect ratio : 1.85:1
Frame rate : 23.976 fps
Color space : YUV
Chroma subsampling : 4:2:0
Bit depth : 8 bits
Scan type : Progressive
Compression mode : Lossy
Bits/(Pixel*Frame) : 0.217
Stream size : 1.33 GiB (91%)
Writing library : XviD 73
Audio
ID : 1
Format : MPEG Audio
Format version : Version 1
Format profile : Layer 3
Mode : Joint stereo
Mode extension : MS Stereo
Codec ID : 55
Codec ID/Hint : MP3
Duration : 2h 12mn
Bit rate mode : Constant
Bit rate : 128 Kbps
Channel(s) : 2 channels
Sampling rate : 48.0 KHz
Compression mode : Lossy
Stream size : 121 MiB (8%)
Alignment : Aligned on interleaves
Interleave, duration : 42 ms (1.00 video frame)
Interleave, preload duration : 504 ms

Скриншоты

Яндекс.Метрика
Рейтинг@Mail.ru