Пресс-конференция О. Сидякина и М. Сайченко освобожденных журналистов LifeNews. (25.05.2014) TVRip

 

Создавать темы 25-Май-2014 15:32

Пресс-конференция О. Сидякина и М. Сайченко освобожденных журналистов LifeNews. (25.05.2014) - Режиссер / Телекомпания: Россия 24
Год выпуска: 2014
Жанр: Документальный, Телепередача
Описание:
Освобождённые журналисты LifeNews Олег Сидякин и Марат Сайченко дали 25.05.2014 года пресс-конференцию в московском офисе LifeNews.
18 мая 2014 года нацгвардия Украины задержала под Краматорском, где проходят бои киевских силовиков с ополченцами, журналистов LifeNews Олега Сидякина и Марата Сайченко. Украинские власти обвинили их в содействии «терроризму» на востоке страны.
Об освобождении журналистов сообщил глава Чечни Рамзан Кадыров. Он также сказал, что последние несколько дней его представители находились в Киеве и вели переговоры по освобождению съёмочной группы.

Участники: журналисты LifeNews Олег Сидякин и Марат Сайченко
Продолжительность: 00:38:14
Качество видео: TVRip
Видеокодек: Xvid
Битрейт видео: ~1143 kb/s
Размер кадра: 768х576
Аудиокодек: MP3, 2 channels
Битрейт аудио: 128 kb/s

MediaInfo

Format : AVI
Format/Info : Audio Video Interleave
File size : 318 MiB
Duration : 38mn 14s
Overall bit rate : 1 163 Kbps
Writing application : MEncoder SVN-r33883(20110719-gcc4.5.2)
Writing library : MPlayer
Video
ID : 0
Format : MPEG-4 Visual
Format profile : Advanced [email protected]
Format settings, BVOP : 2
Format settings, QPel : No
Format settings, GMC : No warppoints
Format settings, Matrix : Default (H.263)
Codec ID : XVID
Codec ID/Hint : XviD
Duration : 38mn 13s
Bit rate : 1 023 Kbps
Width : 768 pixels
Height : 576 pixels
Display aspect ratio : 4:3
Frame rate : 25.000 fps
Color space : YUV
Chroma subsampling : 4:2:0
Bit depth : 8 bits
Scan type : Progressive
Compression mode : Lossy
Bits/(Pixel*Frame) : 0.093
Stream size : 280 MiB (88%)
Writing library : XviD 1.2.1 (UTC 2008-12-04)
Audio
ID : 1
Format : MPEG Audio
Format version : Version 1
Format profile : Layer 3
Mode : Joint stereo
Mode extension : MS Stereo
Codec ID : 55
Codec ID/Hint : MP3
Duration : 38mn 14s
Bit rate mode : Constant
Bit rate : 128 Kbps
Channel count : 2 channels
Sampling rate : 44.1 KHz
Compression mode : Lossy
Delay relative to video : 40ms
Stream size : 35.0 MiB (11%)
Alignment : Aligned on interleaves
Interleave, duration : 26 ms (0.65 video frame)
Interleave, preload duration : 522 ms
Скриншоты:
Яндекс.Метрика
Рейтинг@Mail.ru