Один в один. Сезон №2. Выпуск №13 (2014.05.25) SATRip

 

Создавать темы 25-Май-2014 10:35

- Один в один. Сезон №2. Выпуск №13 (2014.05.25) SATRip - Режиссер / Телекомпания: Россия
Русское название: Один в один
Год выпуска: 2014
Жанр: Тв-Шоу
Ведущие: Юлия Ковальчук, Игорь Верник
Описание:
2 марта в 17:00 на канале "Россия" стартует второй сезон самого успешного проекта прошлого года – шоу "Один в один". Корреспондент сайта Russia.tv побывал на съемках первого выпуска программы и смог лично убедиться, каким трудом дается создание такого масштабного представления. Над проектом работает та же команда, что делала и первый сезон, но создатели не ограничились копированием успешной формулы, а постарались во всем переплюнуть самих себя. И хотя они не стали чинить то, что и так не было сломано, но все-таки добавили несколько интересных решений.
Так, например, всего одной Юлии Началовой пришлось изображать сразу двух артисток – ей предстояло показать на сцене дуэт Мэрайи Кэрри и Уитни Хьюстон. Раздвоиться Началовой помогли достижения современной техники - Хьюстон на сцене была голографическая.
Если во время репетиции еще оставалось время для шуток, то на этот раз все происходило предельно серьезно, но не без доли волнения, ведь артистам предстояло показаться жюри, честно заработать свои оценки и приготовиться к критике и сюрпризам. А без них здесь не обошлось.
Все, чего так боялась Теона Дольникова, действительно произошло – посмотреть на то, как она изображает Ёлку, пришла и сама певица. Правда, узнала Дольникова об этом только после своего выступления, когда неудержимая Ёлка сама выскочила на сцену. Оказалось, что бояться артистке было нечего, так как "оригиналу" ее выступление понравилось. Кстати, не удержались ни Максим Галкин, ни Алексей Чумаков. Такого исполнения знаменитой композиции "На большом воздушном шаре" зрители еще не видели.
Дмитрию Бикбаеву тоже пришлось несладко. Мало того, что изображать Муслима Магомаева в принципе тяжело, так сделать это надо было перед оперной певицей и людьми, которые знали великого артиста лично. Парень с задачей справился. Его поведение на сцене и действительно сильный голос оценило и жюри. Тем забавнее после мощной магомаевской "Свадьбы" было услышать настоящий голос молодого Бикбаева.
А вот Иракли Пирцхалава не просто вжился в образ Стаса Михайлова, он фактически стал им. И если непосредственно пения в номере оказалось не очень много, то его работе с залом, пожалуй, мог бы позавидовать и сам Стас. Его хриплое "Слова знаешь?", обращенное к Ольге Бородиной в середине песни, изрядно повеселило и жюри, и зрителей.
Впрочем, каждый съемочный день - это огромная работа не только певцов, которым приходится выступать под тоннами грима в непривычной обстановке, но и для всей технической команды. Ведь множество декораций – от обычных экранов-ширм до сложнейших металлических конструкций, предназначенных для воспроизведения на сцене голограмм – сами себя не соберут. Да и Алену Свиридову и девушек из ее команды в воздух поднимала не бездушная машина, а исключительно сильные руки людей (посредством системы тросов), которых в кадре вы не увидите. Тем не менее они не меньше артистов волновались и ждали своего, пусть и невидимого никому, выхода. Ведь все должно было пройти идеально.
Продолжительность: ~ 02:30:04
Видеокодек: XviD
Битрейт видео: ~1800 kb/s
Размер кадра: 720 x 400
Качество видео: SATRip
Аудиокодек: MP3, 2ch.
Битрейт аудио: 128 kb/s

MediaInfo

Формат : AVI
Формат/Информация : Audio Video Interleave
Профиль формата : OpenDML
Размер файла : 2,03 Гбайт
Продолжительность : 2 ч. 30 м.
Общий поток : 1938 Кбит/сек
Программа кодирования : VirtualDubMod 1.5.10.3 | www.virtualdub-fr.org || (build 2550/release)
Библиотека кодирования : VirtualDub build 35491/release
Видео
Идентификатор : 0
Формат : MPEG-4 Visual
Профиль формата : Advanced [email protected]
Параметр BVOP формата : 2
Параметр QPel формата : Нет
Параметр GMC формата : Без точки перехода
Параметр матрицы формата : Default (H.263)
Идентификатор кодека : XVID
Идентификатор кодека/Подсказка : XviD
Продолжительность : 2 ч. 30 м.
Битрейт : 1798 Кбит/сек
Ширина : 720 пикселей
Высота : 400 пикселей
Соотношение сторон : 16:9
Частота кадров : 25,000 кадров/сек
Цветовое пространство : YUV
Субдискретизация насыщенности : 4:2:0
Битовая глубина : 8 бит
Тип развёртки : Прогрессивная
Метод сжатия : С потерями
Бит/(Пиксели*Кадры) : 0.250
Размер потока : 1,88 Гбайт (93%)
Библиотека кодирования : XviD 1.2.1 (UTC 2008-12-04)
Аудио
Идентификатор : 1
Формат : MPEG Audio
Версия формата : Version 1
Профиль формата : Layer 3
Режим : Joint stereo
Расширение режима : MS Stereo
Идентификатор кодека : 55
Идентификатор кодека/Подсказка : MP3
Продолжительность : 2 ч. 30 м.
Вид битрейта : Постоянный
Битрейт : 128 Кбит/сек
Каналы : 2 канала
Частота : 48,0 КГц
Метод сжатия : С потерями
Размер потока : 137 Мбайт (7%)
Выравнивание : Соединение по промежуткам
Продолжительность промежутка : 40 мс. (1,00 видеокадр)
Время предзагрузки промежутка : 504 мс.
Библиотека кодирования : LAME3.99r
Настройки программы : -m j -V 4 -q 2 -lowpass 17 -b 128
Скриншоты:Время раздачи: 24/7. До первых 5 скачавших.
Яндекс.Метрика
Рейтинг@Mail.ru