Bernardo Storace (1637-1707): Works for Harpsichord and Organ - Jorg Halubek (2009) [FLAC|Lossless]<Classical, Baroque>

 

Создавать темы 25-Май-2014 10:28

-Bernardo Storace (1637-1707): Works for Harpsichord and Organ - Jorg Halubek (2009)
Selection from: Selva di varie compositioni d'intavalatura per cimbalo ed organo
- Год: 2009
Жанр: Classical, Baroque
Источник: Web
Издатель: CPO
Номер по каталогу: 777 444 2
Страна изготовитель: Germany
Формат: image + .cue
Продолжительность: 01:12:39
Кодек: FLAC | Битрейт: Lossless | Формат: image + .cue
Треклист:
01. Ciaccona (Harpsichord) [06:12]
02. Passagagli sopra In F Minor (Harpsichord) [06:18]
03. Toccata In F Major (Organ) [04:33]
04. Romanesca (Organ) [06:58]
05. Balletto (Harpsichord) [02:23]
06. Follia (Harpsichord) [04:29]
07. Ballo della Battaglia (Organ) [02:18]
08. Ruggiero (Organ) [05:29]
09. Passagagli sopra In C Minor (Harpsichord) [07:16]
10. Toccata In G Major (Organ) [04:29]
11. Recercar In E Minor (Organ) [04:19]
12. Spagnoletta (Harpsichord) [04:24]
13. Partite sopra Il cinque passi (Harpsichord) [04:17]
14. Passagagli sopra In C Minor (Organ) [09:14]

Отчёт ЕАС&#58;

Exact Audio Copy V1.0 beta 3 from 29. August 2011
EAC extraction logfile from 8. February 2014, 10:35
J�rg Halubek / Storace - Works for Harpsichord & Organ
Used drive  : HL-DT-STDVDRAM GSA-4083N   Adapter: 1  ID: 0
Read mode               : Secure
Utilize accurate stream : Yes
Defeat audio cache      : Yes
Make use of C2 pointers : No
Read offset correction                      : 667
Overread into Lead-In and Lead-Out          : No
Fill up missing offset samples with silence : Yes
Delete leading and trailing silent blocks   : No
Null samples used in CRC calculations       : Yes
Used interface                              : Native Win32 interface for Win NT & 2000
Used output format              : User Defined Encoder
Selected bitrate                : 896 kBit/s
Quality                         : High
Add ID3 tag                     : No
Command line compressor         : C:\Program Files\Exact Audio Copy\Flac\flac.exe
Additional command line options : -V -8 %source%
TOC of the extracted CD
     Track |   Start  |  Length  | Start sector | End sector
    ---------------------------------------------------------
        1  |  0:00.02 |  6:12.23 |         2    |    27924
        2  |  6:12.25 |  6:18.10 |     27925    |    56284
        3  | 12:30.35 |  4:32.42 |     56285    |    76726
        4  | 17:03.02 |  6:58.05 |     76727    |   108081
        5  | 24:01.07 |  2:22.57 |    108082    |   118788
        6  | 26:23.64 |  4:29.15 |    118789    |   138978
        7  | 30:53.04 |  2:17.67 |    138979    |   149320
        8  | 33:10.71 |  5:28.74 |    149321    |   173994
        9  | 38:39.70 |  7:15.52 |    173995    |   206671
       10  | 45:55.47 |  4:29.25 |    206672    |   226871
       11  | 50:24.72 |  4:18.47 |    226872    |   246268
       12  | 54:43.44 |  4:24.26 |    246269    |   266094
       13  | 59:07.70 |  4:17.21 |    266095    |   285390
       14  | 63:25.16 |  9:14.01 |    285391    |   326941
Range status and errors
Selected range
     Filename J:\New Music\Storace - Works for Harpsichord & Organ\Storace - Works for Harpsichord & Organ.wav
     Peak level 82.4 %
     Extraction speed 2.7 X
     Range quality 100.0 %
     Test CRC BDECDD59
     Copy CRC BDECDD59
     Copy OK
No errors occurred
AccurateRip summary
Track  1  accurately ripped (confidence 2)  [E2B19A07]  (AR v1)
Track  2  accurately ripped (confidence 2)  [59E84A60]  (AR v1)
Track  3  accurately ripped (confidence 2)  [175ABC3C]  (AR v1)
Track  4  accurately ripped (confidence 2)  [6852B15F]  (AR v1)
Track  5  cannot be verified as accurate (confidence 1)  [E0683DD2], AccurateRip returned [67F3C8FC]  (AR v2)
Track  6  accurately ripped (confidence 2)  [4530946D]  (AR v1)
Track  7  accurately ripped (confidence 2)  [0FB6A4BE]  (AR v1)
Track  8  accurately ripped (confidence 2)  [9AE26D5F]  (AR v1)
Track  9  accurately ripped (confidence 2)  [692146A9]  (AR v1)
Track 10  accurately ripped (confidence 2)  [36545D10]  (AR v1)
Track 11  accurately ripped (confidence 2)  [3825A8C3]  (AR v1)
Track 12  accurately ripped (confidence 2)  [E81659FF]  (AR v1)
Track 13  accurately ripped (confidence 2)  [C2DD9866]  (AR v1)
Track 14  accurately ripped (confidence 2)  [C44E011E]  (AR v1)
13 track(s) accurately ripped
1 track(s) could not be verified as accurate
Some tracks could not be verified as accurate
End of status report
==== Log checksum C86896645495A79EF5DCF31F610EB880EF5F4A600D764D9C3A1E5E2B2573DA86 ====

Отчёт auCDtect Task manager&#58;

-----------------------
DON'T MODIFY THIS FILE
-----------------------
PERFORMER: auCDtect Task Manager, ver. 1.6.0 RC1 build 1.6.0.1
Copyright (c) 2008-2010 y-soft. All rights reserved
http://y-soft.org
ANALYZER: auCDtect: CD records authenticity detector, version 0.8.2
Copyright (c) 2004 Oleg Berngardt. All rights reserved.
Copyright (c) 2004 Alexander Djourik. All rights reserved.
FILE: Storace - Works for Harpsichord & Organ.flac
  Size: 393634885 Hash: B2E9415EF87409BB86584725574C9789 Accuracy: -m0
  Conclusion: CDDA 87%
  Signature: 9752DD7AC0AE99A3A3BBE8CE1E5801BA63EDC6B0
Яндекс.Метрика
Рейтинг@Mail.ru