[ Сегодня на трекере фрилич! Идет свободное скачивание без начисления Download ]

Mendelssohn & Beethoven: Violin Concertos - Joshua Bell (2002) [FLAC|Lossless]<Classical, Instrumental>

 

Создавать темы 25-Май-2014 10:27

-Mendelssohn & Beethoven: Violin Concertos - Joshua Bell (2002)- Год: 2002
Жанр: Classical, Instrumental
Источник: Web
Издатель: SONY Music
Номер по каталогу: SK 89 505
Страна изготовитель: USA
Продолжительность: 01:10:01
Кодек: FLAC | Битрейт: Lossless | Формат: tracks + .cue
Треклист:
Felix Mendelssohn: Concerto for Violin and Orchestra in E Minor, Op. 64
1. i. Allegro molto appassionato [13:05]
2. ii. Andante [08:01]
3. iii. Allegretto non troppo - Allegro molto vivace [06:37]
Ludwig van Beethoven: Concerto for Violin and Orchestra in D Major, Op. 61
4. i. Allegro, ma non troppo [23:50]
5. ii. Larghetto [09:07]
6. iii. Rondo. Allegro [09:21]
Orchestra:
Salzburg Camerata: sir Roger Norrington

Отчёт ЕАС&#58;

Exact Audio Copy V0.99 prebeta 5 from 4. May 2009
EAC extraction logfile from 3. December 2009, 20:57
Joshua Bell / Mendelssohn & Beethoven - Violin Concertos
Used drive  : PLEXTOR DVDR   PX-800A   Adapter: 0  ID: 0
Read mode               : Secure
Utilize accurate stream : Yes
Defeat audio cache      : Yes
Make use of C2 pointers : No
Read offset correction                      : 48
Overread into Lead-In and Lead-Out          : No
Fill up missing offset samples with silence : Yes
Delete leading and trailing silent blocks   : No
Null samples used in CRC calculations       : Yes
Used interface                              : Native Win32 interface for Win NT & 2000
Gap handling                                : Appended to previous track
Used output format              : User Defined Encoder
Selected bitrate                : 128 kBit/s
Quality                         : High
Add ID3 tag                     : No
Command line compressor         : C:\Program Files (x86)\FLAC\flac.exe
Additional command line options : -8 -V -T "ARTIST=%a" -T "TITLE=%t" -T "ALBUM=%g" -T "DATE=%y" -T "TRACKNUMBER=%n" -T "TOTALTRACKS=%x" -T "GENRE=%m" -T "ALBUM ARTIST=%v" -T "ALBUMARTIST=%v" -T "COMMENT=EAC V0.99 prebeta 5, Secure Mode, Test & Copy, Accurat
TOC of the extracted CD
     Track |   Start  |  Length  | Start sector | End sector
    ---------------------------------------------------------
        1  |  0:00.00 | 13:05.02 |         0    |    58876
        2  | 13:05.02 |  8:01.10 |     58877    |    94961
        3  | 21:06.12 |  6:37.15 |     94962    |   124751
        4  | 27:43.27 | 23:49.55 |    124752    |   231981
        5  | 51:33.07 |  9:07.08 |    231982    |   273014
        6  | 60:40.15 |  9:20.42 |    273015    |   315056
Track  1
     Filename F:\My Music\EacRips\01 - Mendelssohn I.  Allegro molto appassionato.wav
     Pre-gap length  0:00:02.00
     Peak level 93.0 %
     Track quality 100.0 %
     Test CRC 7CD55247
     Copy CRC 7CD55247
     Accurately ripped (confidence 8)  [7014EC42]
     Copy OK
Track  2
     Filename F:\My Music\EacRips\02 - Mendelssohn II.   Andante.wav
     Peak level 48.4 %
     Track quality 100.0 %
     Test CRC C0439506
     Copy CRC C0439506
     Accurately ripped (confidence 8)  [46A997D9]
     Copy OK
Track  3
     Filename F:\My Music\EacRips\03 - Mendelssohn III.   Allegretto non troppo - Allegro molto vivace.wav
     Peak level 93.4 %
     Track quality 100.0 %
     Test CRC C65F72CF
     Copy CRC C65F72CF
     Accurately ripped (confidence 8)  [5A9FAD3A]
     Copy OK
Track  4
     Filename F:\My Music\EacRips\04 - Beethoven I.   Allegro, ma non troppo.wav
     Pre-gap length  0:00:09.62
     Peak level 92.4 %
     Track quality 100.0 %
     Test CRC 86AACF24
     Copy CRC 86AACF24
     Accurately ripped (confidence 8)  [00DBA31B]
     Copy OK
Track  5
     Filename F:\My Music\EacRips\05 - Beethoven II.   Larghetto.wav
     Pre-gap length  0:00:03.33
     Peak level 44.4 %
     Track quality 100.0 %
     Test CRC 2C932EDE
     Copy CRC 2C932EDE
     Accurately ripped (confidence 8)  [1A22925D]
     Copy OK
Track  6
     Filename F:\My Music\EacRips\06 - Beethoven III.   Rondo. Allegro.wav
     Peak level 90.0 %
     Track quality 99.9 %
     Test CRC E43334D8
     Copy CRC E43334D8
     Accurately ripped (confidence 7)  [A1CA8BCD]
     Copy OK
All tracks accurately ripped
No errors occurred
End of status report

Отчёт auCDtect Task manager&#58;

-----------------------
DON'T MODIFY THIS FILE
-----------------------
PERFORMER: auCDtect Task Manager, ver. 1.6.0 RC1 build 1.6.0.1
Copyright (c) 2008-2010 y-soft. All rights reserved
http://y-soft.org
ANALYZER: auCDtect: CD records authenticity detector, version 0.8.2
Copyright (c) 2004 Oleg Berngardt. All rights reserved.
Copyright (c) 2004 Alexander Djourik. All rights reserved.
FILE: 06 - Beethoven III.   Rondo. Allegro.flac
  Size: 41808268 Hash: 8B0CACF28067C1469F9191B0BEBF2F54 Accuracy: -m0
  Conclusion: CDDA 92%
  Signature: EB97DE92CA85B0A3C3F436E7F109B9D63A9E7841
FILE: 05 - Beethoven II.   Larghetto.flac
  Size: 34074284 Hash: 0BEBE484D447267E49B54F91E47F6E26 Accuracy: -m0
  Conclusion: CDDA 85%
  Signature: CD345A32D3BD99E1B83807B84D0F2E0CA5FCBF5C
FILE: 04 - Beethoven I.   Allegro, ma non troppo.flac
  Size: 103387869 Hash: FD7757A685F9E66022CA6A7692810E55 Accuracy: -m0
  Conclusion: CDDA 94%
  Signature: A0A27F362620E702DA780C088562B04EEA8F04C3
FILE: 03 - Mendelssohn III.   Allegretto non troppo - Allegro molto vivace.flac
  Size: 29418065 Hash: EBCD925E9DC1D580DB7514B26B1B543F Accuracy: -m0
  Conclusion: CDDA 100%
  Signature: E7253423D0C4B5D8B4F904FA800F95C1B665178F
FILE: 02 - Mendelssohn II.   Andante.flac
  Size: 31758669 Hash: 4D3D09FD433FE83DEB34CCEFBEAD72A4 Accuracy: -m0
  Conclusion: CDDA 86%
  Signature: 460519B0627FD4939C6DF946DBAB2716E0538F44
FILE: 01 - Mendelssohn I.  Allegro molto appassionato.flac
  Size: 60564019 Hash: 04F418D4E7A88A0E346193C8C059F246 Accuracy: -m0
  Conclusion: CDDA 100%
  Signature: B190BD75E648A6167D3C972BCF7C34E0701FA813
Яндекс.Метрика
Рейтинг@Mail.ru