[ Сегодня на трекере фрилич! Идет свободное скачивание без начисления Download ]

Запретные темы истории. Неизвестная Мексика / Серии: 1-6 из 6 (Андрей Скляров) [2007 г., документальный, DVDRip] [Original (Rus)]

 

Создавать темы 25-Май-2014 03:32

-Запретные темы истории. Неизвестная Мексика- Год выпуска: 2007 г.
Производство: Россия , Фонд развития науки "III тысячелетие"
Жанр: документальный
Продолжительность: 6х ~ 00:26:00
Перевод: Не требуется
Оригинальный аудиопоток: русский
Режиссёр: Андрей Скляров-В ролях: Андрей Скляров, Андрей Жуков, Алексей Тесленко, Дмитрий Огай-Описание: Фильм "Неизвестная Мексика" создан на базе материала, собранного в ходе экспедиции в Мексику в марте 2007 года, и основан на фактах, которые откровенно скрываются и замалчиваются. Многое из фильма ранее нигде не освещалось, и у зрителей есть возможность впервые увидеть то, что указывает на совсем иное прошлое Мезоамериканского региона. В этом прошлом обнаруживается реальное существование высокоразвитой цивилизации, существование которой академическая наука категорически отрицает.
-Качество видео: DVDRip
Контейнер: AVI
Видео кодек: XviD
Аудио кодек: MP3
Видео: 720x576, 1714; 1691; 1521; 1636; 1506; 1231 kbps, 29.970 fps, 0.138 bit/pixel
Аудио: 192 kbps, 2 ch, 44.1 kHz
Cубтитры: отсутствуют

Media Info

Общее
Полное имя : Запретные темы истории. Неизвестная Мексика.2007.[DVDRip]\Неизвестная Мексика.1.avi
Формат : AVI
Формат/Информация : Audio Video Interleave
Размер файла : 356 Мбайт
Продолжительность : 25 м.
Общий поток : 1918 Кбит/сек
Видео
Идентификатор : 0
Формат : MPEG-4 Visual
Профиль формата : Advanced [email protected]
Параметр BVOP формата : 2
Параметр QPel формата : Нет
Параметр GMC формата : Без точки перехода
Параметр матрицы формата : Default (H.263)
Режим смешивания : Сжатый битовый поток
Идентификатор кодека : XVID
Идентификатор кодека/Подсказка : XviD
Продолжительность : 25 м.
Битрейт : 1714 Кбит/сек
Ширина : 720 пикселей
Высота : 576 пикселей
Соотношение сторон : 5:4
Частота кадров : 29,970 кадров/сек
Стандарт вещания : PAL
Цветовое пространство : YUV
Субдискретизация насыщенности : 4:2:0
Битовая глубина : 8 бит
Тип развёртки : Прогрессивная
Метод сжатия : С потерями
Бит/(Пиксели*Кадры) : 0.138
Размер потока : 319 Мбайт (89%)
Библиотека кодирования : XviD 1.2.0.dev47 (UTC 2006-11-01)
Аудио
Идентификатор : 1
Формат : MPEG Audio
Версия формата : Version 1
Профиль формата : Layer 3
Идентификатор кодека : 55
Идентификатор кодека/Подсказка : MP3
Продолжительность : 25 м.
Вид битрейта : Постоянный
Битрейт : 192 Кбит/сек
Каналы : 2 канала
Частота : 44,1 КГц
Метод сжатия : С потерями
Задержка видео : 26 мс.
Размер потока : 35,7 Мбайт (10%)
Выравнивание : Разделение по промежуткам
Продолжительность промежутка : 33 мс. (1,00 видеокадр)
Заголовок : Audio Stream

Содержание

Часть 1. Тайны города богов.
Часть 2. Жемчужина в джунглях.
Часть 3. Вопросы без ответов.
Часть 4. О тех, "кого не было".
Часть 5. Чужое знание.
Часть 6. Мексиканская динотопия.

Скриншоты

Яндекс.Метрика
Рейтинг@Mail.ru