Открытый перелом / Compound Fracture (Энтони Дж. Рикерт-Эпстин / Anthony J. Rickert-Epstein) [2013 г., Ужасы, триллер, WEB-DL] DVO [DeadSno & den904] + Original (Eng)

 

Создавать темы 24-Май-2014 16:40

-Открытый перелом / Compound Fracture- Производство: США, Mane Entertainment
Год выпуска: 2013 г.
Жанр: Ужасы, триллер
Продолжительность: 01:30:59
Мировая премьера: 13 мая 2014-Перевод: Любительский (двухголосый, закадровый) [DeadSno & den904]
Оригинальный аудиопоток: английский-Режиссер: Энтони Дж. Рикерт-Эпстин / Anthony J. Rickert-Epstein
В ролях: Тайлер Мэйн, Мьюз Уотсон, Дерек Мирс, Лесли Истербрук, Рене Гирлингс, Алекс Саксон, Сьюзэн Анджело, Джелли Хоуи, Дэниэл Робак, Тодд Фармер-Описание: Сюжет фильма о том, как на глазах у своего сына отец убивает мать. Паренька берет в опеку родной дядя с женой и они вместе уезжают жить к дедушке, пытаясь наладить новый быт. Но все не так просто дедушка не совсем вменяем и здесь же появляется призрак его брата убийцы. Призрак хочет уничтожить всех членов семьи.-Качество видео: WEB-DL
Контейнер: AVI
Видео кодек: XviD
Аудио кодек: AC3
Видео: 720x304 (2.37:1), 23.976 fps, XviD build 50 ~1901 kbps avg, 0.36 bit/pixel
Аудио: 48 kHz, AC3 Dolby Digital, 2/0 (L,R) ch, ~192 kbps [Rus, DVO]
Аудио #2: 48 kHz, AC3 Dolby Digital, 2/0 (L,R) ch, ~192 kbps [Eng, Original]
Cубтитры: отсутствуют

Media Info

General
Complete name : D:\Otkrytyj.perelom.2013.WEBDLRip.1400Mb.avi
Format : AVI
Format/Info : Audio Video Interleave
File size : 1.46 GiB
Duration : 1h 30mn
Overall bit rate : 2 300 Kbps
Writing application : VirtualDubMod 1.5.10.2 (build 2540/release)
Writing library : VirtualDubMod build 2540/release
Video
ID : 0
Format : MPEG-4 Visual
Format profile : Advanced [email protected]
Format settings, BVOP : 2
Format settings, QPel : No
Format settings, GMC : No warppoints
Format settings, Matrix : Default (MPEG)
Codec ID : XVID
Codec ID/Hint : XviD
Duration : 1h 30mn
Bit rate : 1 902 Kbps
Width : 720 pixels
Height : 304 pixels
Display aspect ratio : 2.35:1
Frame rate : 23.976 fps
Color space : YUV
Chroma subsampling : 4:2:0
Bit depth : 8 bits
Scan type : Progressive
Compression mode : Lossy
Bits/(Pixel*Frame) : 0.362
Stream size : 1.21 GiB (83%)
Writing library : XviD 1.2.1 (UTC 2008-12-04)
Audio #1
ID : 1
Format : AC-3
Format/Info : Audio Coding 3
Mode extension : CM (complete main)
Format settings, Endianness : Big
Codec ID : 2000
Duration : 1h 30mn
Bit rate mode : Constant
Bit rate : 192 Kbps
Channel(s) : 2 channels
Channel positions : Front: L R
Sampling rate : 48.0 KHz
Bit depth : 16 bits
Compression mode : Lossy
Stream size : 125 MiB (8%)
Alignment : Split accross interleaves
Interleave, duration : 42 ms (1.00 video frame)
Interleave, preload duration : 500 ms
Audio #2
ID : 2
Format : AC-3
Format/Info : Audio Coding 3
Mode extension : CM (complete main)
Format settings, Endianness : Big
Codec ID : 2000
Duration : 1h 30mn
Bit rate mode : Constant
Bit rate : 192 Kbps
Channel(s) : 2 channels
Channel positions : Front: L R
Sampling rate : 48.0 KHz
Bit depth : 16 bits
Compression mode : Lossy
Stream size : 125 MiB (8%)
Alignment : Split accross interleaves
Interleave, duration : 42 ms (1.00 video frame)
Interleave, preload duration : 500 ms

Скриншоты

Яндекс.Метрика
Рейтинг@Mail.ru