Реальная белка / The Nut Job (Питер Лепениотис / Peter Lepeniotis) [2014 г., Мультфильм, комедия, приключения, семейный, HDRip] Dub «Lizard Cinema Trade»

 

Создавать темы 24-Май-2014 04:54

-Реальная белка / The Nut Job--«Береги свои орешки!» Производство: Канада, Корея Южная, США / Gulfstream Pictures, Red Rover International, ToonBox Entertainment
Год выпуска: 2014 г.
Жанр: Мультфильм, комедия, приключения, семейный
Продолжительность: 01:25:54
Мировая премьера: 11 января 2014
Российская премьера: 17 апреля 2014, «Двадцатый Век Фокс СНГ», «Каравелла DDC»
Дата выхода DVD: 27 мая 2014, «Lizard Cinema Trade», ...
Дата выхода Blu-Ray: 27 мая 2014, «Lizard Cinema Trade», ...
Перевод: Профессиональный (полное дублирование) [Лицензия]
Режиссер: Питер Лепениотис / Peter Lepeniotis-В ролях: Уилл Арнетт, Брендан Фрейзер, Лиам Нисон, Кэтрин Хейгл, Стивен Лэнг, Майя Рудольф, Джефф Данэм, Гэбриел Иглесиас, Сара Гадон, Джеймс Ранкин-Описание: Пытаясь выжить в городе, неразлучные друзья — белка Злюк и крысёнок Бадди натыкаются на магазин, до краёв набитый их любимым лакомством — орехами. Чувствуя, что «мечты сбываются», приятели планируют величайшее ограбление в истории грызунов. Но тут совсем некстати нарисовались бедные родственники из парка — прямо 13 друзей арахиса! Однако им всем невдомёк, что магазин орехов — лишь прикрытие для банды грабителей, которые намерены вырыть туннель под банк и подменить мешки с деньгами на мешки с теми самыми орехами.-
Качество видео: HDRip
Контейнер: AVI
Видео кодек: XviD
Аудио кодек: AC3
Видео: 720x384 (1.88:1), 23.976 fps, XviD build 50 ~1820 kbps avg, 0.27 bit/pixel
Аудио: Rus: 48 kHz, AC3 Dolby Digital, 6 ch, ~448 kbps [Dub]
Cубтитры: отсутствуют

Media Info

General
Complete name : W:\Realnaya.Belka.2014.D.HDRip.1400MB.avi
Format : AVI
Format/Info : Audio Video Interleave
File size : 1.37 GiB
Duration : 1h 25mn
Overall bit rate : 2 278 Kbps
Writing application : VirtualDubMod 1.5.10.2 (build 2540/release)
Writing library : VirtualDubMod build 2540/release
Video
ID : 0
Format : MPEG-4 Visual
Format profile : Advanced [email protected]
Format settings, BVOP : Yes
Format settings, QPel : No
Format settings, GMC : No warppoints
Format settings, Matrix : Custom
Codec ID : XVID
Codec ID/Hint : XviD
Duration : 1h 25mn
Bit rate : 1 821 Kbps
Width : 720 pixels
Height : 384 pixels
Display aspect ratio : 1.875
Frame rate : 23.976 fps
Color space : YUV
Chroma subsampling : 4:2:0
Bit depth : 8 bits
Scan type : Progressive
Bits/(Pixel*Frame) : 0.275
Stream size : 1.09 GiB (80%)
Writing library : XviD 1.2.1 (UTC 2008-12-04)
Audio
ID : 1
Format : AC-3
Format/Info : Audio Coding 3
Mode extension : CM (complete main)
Codec ID : 2000
Duration : 1h 25mn
Bit rate mode : Constant
Bit rate : 448 Kbps
Channel(s) : 6 channels
Channel positions : Front: L C R, Side: L R, LFE
Sampling rate : 48.0 KHz
Bit depth : 16 bits
Stream size : 275 MiB (20%)
Alignment : Split accross interleaves
Interleave, duration : 42 ms (1.00 video frame)
Interleave, preload duration : 500 ms

Скриншоты

Яндекс.Метрика
Рейтинг@Mail.ru