Пограничный пёс Алый (Юлий Файт) [1979 г., приключения, семейный, DVDRip]

 

Создавать темы 24-Май-2014 04:50

-Пограничный пёс Алый-- Производство: СССР. Киностудия им. М. Горького
Режиссер: Юлий Файт
Жанр: приключения, семейный
Год выпуска: 1979 г.
Продолжительность: 01:03:12
В ролях: Владимир Дубровский, Василий Куприянов, Виктор Косых, Владимир Герасимов, Нартай Бегалин, Игорь Косухин, Александр Казаков, Артур Нищенкин, Яна Друзь-Описание: Когда Лёша Кошкин пришел в военкомат призываться, он объявил, что главное желание его жизни…получить собаку. И он получил щенка, которого выучил в школе служебного собаководства всем премудростям. А потом началась для Лёши и его пса Алого настоящая военная служба на пограничной заставе…-Качество видео: DVDRip
Контейнер: AVI
Видео кодек: DivX
Аудио кодек: AC3
Видео: 704x336; 2278 kbps; 25 fps; 0.385 bit/pixel
Аудио: 192 kbps; 2 ch; 48 kHz
Cубтитры: отсутствуют

Media Info

General
Complete name : E:\Torrent\Pogranichnij_pes_Alij_[Pirat.ca].torrent.avi
Format : AVI
Format/Info : Audio Video Interleave
File size : 1.09 GiB
Duration : 1h 3mn
Overall bit rate : 2 479 Kbps
Director : Xamasas
Writing application : VirtualDubMod 1.5.10.2 (build 2540/release)
Video
ID : 0
Format : MPEG-4 Visual
Format settings, BVOP : 1
Format settings, QPel : No
Format settings, GMC : No warppoints
Format settings, Matrix : Default (H.263)
Muxing mode : Packed bitstream
Codec ID : DX50
Codec ID/Hint : DivX 5
Duration : 1h 3mn
Bit rate : 2 278 Kbps
Width : 704 pixels
Height : 336 pixels
Display aspect ratio : 2.095
Frame rate : 25.000 fps
Color space : YUV
Chroma subsampling : 4:2:0
Bit depth : 8 bits
Scan type : Progressive
Compression mode : Lossy
Bits/(Pixel*Frame) : 0.385
Stream size : 1.01 GiB (92%)
Writing library : DivX 5.2.1 (WaffleDay) (UTC 2004-09-08)
Audio
ID : 1
Format : AC-3
Format/Info : Audio Coding 3
Mode extension : CM (complete main)
Format settings, Endianness : Big
Codec ID : 2000
Duration : 1h 3mn
Bit rate mode : Constant
Bit rate : 192 Kbps
Channel(s) : 2 channels
Channel positions : Front: L R
Sampling rate : 48.0 KHz
Bit depth : 16 bits
Compression mode : Lossy
Stream size : 86.8 MiB (8%)
Alignment : Split accross interleaves
Interleave, duration : 40 ms (1.00 video frame)
Interleave, preload duration : 500 ms

Скриншоты

Раздача

Раздача с 14.00 до 2.30 (время московское)
Яндекс.Метрика
Рейтинг@Mail.ru