День отца / Father's Day (Адам Брукс / Adam Brooks, Джереми Гиллеспи / Jeremy Gillespie, Мэттью Кеннеди / Matthew Kennedy) [2011 г., Ужасы, боевик, комедия, HDRip] VO [den904] + Original (Eng)

 

Создавать темы 22-Май-2014 15:26

-День отца / Father's Day- Производство: США, Канада, Astron-6, Troma Entertainment
Год выпуска: 2011 г.
Жанр: Ужасы, боевик, комедия
Продолжительность: 01:40:25
Мировая премьера: 21 октября 2011-Перевод: Любительский (одноголосый, закадровый) [den904]
Оригинальный аудиопоток: английский-Режиссер: Адам Брукс / Adam Brooks, Джереми Гиллеспи / Jeremy Gillespie, Мэттью Кеннеди / Matthew Kennedy
В ролях: Адам Брукс, Мэттью Кеннеди, Конор Суини, Эми Гроунинг, Брент Нил, Кевин Андерсон, Мередит Суини, Ллойд Кауфман-Описание: Зловещий маньяк насилует и убивает отцов. По его следу идёт троица отважных мстителей: гей, священник и некто Ахав, который уже пересекался с маньяком в своем темном прошлом…-Качество видео: HDRip
Контейнер: AVI
Видео кодек: XviD
Аудио кодек: AC3
Видео: 720x400 (1.80:1), 23.976 fps, XviD build 50 ~1550 kbps avg, 0.22 bit/pixel
Аудио: 48 kHz, AC3 Dolby Digital, 2/0 (L,R) ch, ~192 kbps [Rus, VO]
Аудио #2: 48 kHz, AC3 Dolby Digital, 2/0 (L,R) ch, ~192 kbps [Eng, Original]
Cубтитры: отсутствуют

Media Info

General
Complete name : D:\Den.otca.2011HDRip.avi
Format : AVI
Format/Info : Audio Video Interleave
File size : 1.37 GiB
Duration : 1h 40mn
Overall bit rate : 1 950 Kbps
Writing application : VirtualDubMod 1.5.10.2 (build 2540/release)
Writing library : VirtualDubMod build 2540/release
Video
ID : 0
Format : MPEG-4 Visual
Format profile : Advanced [email protected]
Format settings, BVOP : 2
Format settings, QPel : Yes
Format settings, GMC : No warppoints
Format settings, Matrix : Default (H.263)
Codec ID : XVID
Codec ID/Hint : XviD
Duration : 1h 40mn
Bit rate : 1 552 Kbps
Width : 720 pixels
Height : 400 pixels
Display aspect ratio : 16:9
Frame rate : 23.976 fps
Color space : YUV
Chroma subsampling : 4:2:0
Bit depth : 8 bits
Scan type : Progressive
Compression mode : Lossy
Bits/(Pixel*Frame) : 0.225
Stream size : 1.09 GiB (80%)
Writing library : XviD 1.2.1 (UTC 2008-12-04)
Audio #1
ID : 1
Format : AC-3
Format/Info : Audio Coding 3
Mode extension : CM (complete main)
Format settings, Endianness : Big
Codec ID : 2000
Duration : 1h 40mn
Bit rate mode : Constant
Bit rate : 192 Kbps
Channel(s) : 2 channels
Channel positions : Front: L R
Sampling rate : 48.0 KHz
Bit depth : 16 bits
Compression mode : Lossy
Stream size : 138 MiB (10%)
Alignment : Aligned on interleaves
Interleave, duration : 42 ms (1.00 video frame)
Interleave, preload duration : 512 ms
Audio #2
ID : 2
Format : AC-3
Format/Info : Audio Coding 3
Mode extension : CM (complete main)
Format settings, Endianness : Big
Codec ID : 2000
Duration : 1h 40mn
Bit rate mode : Constant
Bit rate : 192 Kbps
Channel(s) : 2 channels
Channel positions : Front: L R
Sampling rate : 48.0 KHz
Bit depth : 16 bits
Compression mode : Lossy
Stream size : 138 MiB (10%)
Alignment : Split accross interleaves
Interleave, duration : 42 ms (1.00 video frame)
Interleave, preload duration : 500 ms

Скриншоты

Яндекс.Метрика
Рейтинг@Mail.ru