[ Сегодня на трекере фрилич! Идет свободное скачивание без начисления Download ]

Корпорация "Еда" / Food, Inc. (Роберт Кеннер / Robert Kenner) [2008 г., документальный, BDRip] MVO + Original (Eng)

 

Создавать темы 22-Май-2014 03:33

-Корпорация "Еда" / Food, Inc.-«Вы больше никогда не посмотрите на свой ужин прежним взглядом»- Год выпуска: 2008 г.
Производство: США , Magnolia Pictures, Participant Media, River Road Entertainment
Жанр: документальный
Продолжительность: 01:33:44
Мировая премьера: 7 сентября 2008
Дата выхода DVD: 18 марта 2010, «Вольга»
Перевод: Профессиональный (многоголосый, закадровый)
Автор(ы) перевода: R5
Оригинальный аудиопоток: английский
Режиссёр: Роберт Кеннер / Robert Kenner-В ролях: Эрик Шлоссер, Ричард Лобб, Винс Эдвардс, Кэрол Морисон, Трой Пуш, Ларри Джонсон, Аллен Тренкл, Барбара Ковальчик, Патриция Бак, Фил Инглиш-Описание: Нелестный взгляд на американскую пищевую промышленность и контролирующие её корпорации.
Документальный фильм, исследующий производство различных продуктов в США, рассказывающий, что почти все продукты в магазинах Америки продаются потребителям по чрезмерно завышенным ценам, а сами при этом экологически небезопасны и вредны для здоровья человека. Фильм вызвал негативную реакцию со стороны корпораций, занятых в производстве продуктов питания.
Первая часть фильма исследует промышленное производство мяса: курятины, говядины и свинины.
Во второй части рассматривается производство зерна и овощей (особенно кукурузы и сои).
Последняя часть рассказывает о корпорациях, занятых промышленным производством продуктов питания: о законах, позволяющим им поставлять потребителю дешёвую, но опасную пищу; об используемых ими химикатах и удобрениях на нефтяной основе (пестициды); о продвижении в массы привычки к неправильному и нездоровому питанию.
-Качество видео: BDRip
Контейнер: AVI
Видео кодек: XviD
Аудио кодек: AC3
Видео: 720x400, 1832 kbps, 23.976 fps, 0.265 bit/pixel
Аудио: 384 kbps, 6 ch, 48.0 kHz [MVO]
Аудио #2: 384 kbps, 6 ch, 48.0 kHz [Original] {отдельно}
Cубтитры: отсутствуют

Media Info

Общее
Полное имя : Корпорация Еда_ Food.Inc.2008.[BDRip]\Корпорация Еда_ Food.Inc.2008.[BDRip].avi
Формат : AVI
Формат/Информация : Audio Video Interleave
Размер файла : 1,46 Гбайт
Продолжительность : 1 ч. 33 м.
Общий поток : 2225 Кбит/сек
Программа кодирования : VirtualDubMod 1.5.10.2 (build 2540/release)
Видео
Идентификатор : 0
Формат : MPEG-4 Visual
Профиль формата : Advanced [email protected]
Параметр BVOP формата : 1
Параметр QPel формата : Нет
Параметр GMC формата : Без точки перехода
Параметр матрицы формата : Default (MPEG)
Режим смешивания : Сжатый битовый поток
Идентификатор кодека : XVID
Идентификатор кодека/Подсказка : XviD
Продолжительность : 1 ч. 33 м.
Битрейт : 1832 Кбит/сек
Ширина : 720 пикселей
Высота : 400 пикселей
Соотношение сторон : 16:9
Частота кадров : 23,976 кадра/сек
Цветовое пространство : YUV
Субдискретизация насыщенности : 4:2:0
Битовая глубина : 8 бит
Тип развёртки : Прогрессивная
Метод сжатия : С потерями
Бит/(Пиксели*Кадры) : 0.265
Размер потока : 1,20 Гбайт (82%)
Библиотека кодирования : XviD 1.2.1 (UTC 2008-12-04)
Аудио
Идентификатор : 1
Формат : AC-3
Формат/Информация : Audio Coding 3
Расширение режима : CM (complete main)
Параметр Endianness формата : Big
Идентификатор кодека : 2000
Продолжительность : 1 ч. 33 м.
Вид битрейта : Постоянный
Битрейт : 384 Кбит/сек
Каналы : 6 каналов
Расположение каналов : Front: L C R, Side: L R, LFE
Частота : 48,0 КГц
Битовая глубина : 16 бит
Метод сжатия : С потерями
Размер потока : 257 Мбайт (17%)
Выравнивание : Разделение по промежуткам
Продолжительность промежутка : 42 мс. (1,00 видеокадр)
Время предзагрузки промежутка : 500 мс.

Награды

Скриншоты

Яндекс.Метрика
Рейтинг@Mail.ru