Теория заговора / Zulu (Жером Салль / Jérôme Salle) [2013 г., триллер, драма, криминал, HDRip] VO [datynet]

 

Создавать темы 22-Май-2014 03:20

-Теория заговора / Zulu-- Производство: Франция, ЮАР / Eskwad, Pathé, Lobster Tree
Год выпуска: 2013 г.
Жанр: триллер, драма, криминал
Продолжительность: 01:46:42
Мировая премьера: 26 мая 2013, ...
Российская премьера: 19 июня 2014, «Top Film Distribution»
Перевод: Любительский (одноголосый, закадровый) [datynet]
Режиссер: Жером Салль / Jérôme Salle-В ролях: Орландо Блум, Форест Уитакер, Таня ван Граан, Наташа Лоринг, Роксанна Прентис, Патрик Листер, Свен Рюйгрок, Келси Иган, Конрад Кемп, Лизе Слэббер-Описание: В Южной Африке, где еще царит апартеид, два полицейских разыскивают убийцу молодой девушки в негритянских гетто и в фешенебельных районах Кейптауна. Это расследование перевернет жизнь героев и заставит их бороться со своими внутренними страхами.-
Качество видео: HDRip
Контейнер: AVI
Видео кодек: XviD
Аудио кодек: MP3
Видео: XviD, 1750 Kb/s, 720x304 (2.35:1), 24 fps, 0.333 bpp
Аудио: 44.1 kHz, MP3, 192 Kb/s (2 ch)
Cубтитры: отсутствуют

Media Info

General
Complete name : W:\Zulu.2013.L1.HDRip.avi
Format : AVI
Format/Info : Audio Video Interleave
File size : 1.45 GiB
Duration : 1h 46mn
Overall bit rate : 1 951 Kbps
Writing application : VirtualDubMod 1.5.10.3 | www.virtualdub-fr.org || (build 2550/release)
Writing library : VirtualDubMod build 2550/release
Video
ID : 0
Format : MPEG-4 Visual
Format profile : Advanced [email protected]
Format settings, BVOP : Yes
Format settings, QPel : Yes
Format settings, GMC : No warppoints
Format settings, Matrix : Default (MPEG)
Codec ID : XVID
Codec ID/Hint : XviD
Duration : 1h 46mn
Bit rate : 1 750 Kbps
Width : 720 pixels
Height : 304 pixels
Display aspect ratio : 2.35:1
Frame rate : 24.000 fps
Color space : YUV
Chroma subsampling : 4:2:0
Bit depth : 8 bits
Scan type : Progressive
Bits/(Pixel*Frame) : 0.333
Stream size : 1.30 GiB (90%)
Writing library : XviD 1.2.1 (UTC 2008-12-04)
Audio
ID : 1
Format : MPEG Audio
Format version : Version 1
Format profile : Layer 3
Codec ID : 55
Codec ID/Hint : MP3
Duration : 1h 46mn
Bit rate mode : Constant
Bit rate : 192 Kbps
Channel(s) : 2 channels
Sampling rate : 44.1 KHz
Stream size : 147 MiB (10%)
Alignment : Split accross interleaves
Interleave, duration : 42 ms (1.00 video frame)
Interleave, preload duration : 500 ms

Скриншоты

Яндекс.Метрика
Рейтинг@Mail.ru