[ Сегодня на трекере фрилич! Идет свободное скачивание без начисления Download ]

Симпсоны / The Simpsons (1989-2012) DVDRip (24 сезона, 530 серий)

 

Создавать темы 20-Май-2014 13:54

-
Симпсоны / The Simpsons (1989-2012) DVDRip
-
Год выпуска: 1989-2012
Жанр: Мультфильм-Перевод:
1-23 сезоны, профессиональный студия Кипарис (РЕН-ТВ и 2Х2),
24 сезон - (NemFilm)
Дата мировой премьеры: 17.12.1989
Дата выхода DVD/Blu-Ray релиза: 21.08.2008
-Режиссер: Мэтт Гроунинг
Описание фильма:
Мультфильм - пародия на американский уклад жизни. Cемейство Симпсонов состоит из пяти членов: папаша Гомер, мать семейства Мардж, их дочери Лиза и Мэгги и несносный подросток Барт.-Продолжительность: 530 x ~ 00:22:00
Сэмпл: Скачать
Качество видео: DVDRip
Размер кадра:
1-6, 8-11, 13, 17-20, 24 Сезоны: 640x480
7 Сезон: 656х480
12 Сезон: 720х528
14,15 Сезоны: 720х544
16 Сезон: 512х384
21-23 Сезоны: 720х400
Видеокодек: XviD, DivX 5
Битрейт видео: 850 Кбит/с - 1100 Кбит/с
Аудио #1: Русский (AC3, 2 ch, 192 Кбит/с и MP3, 2 ch, 96Кбит/с - 128 Кбит/с) (перевод РЕН-ТВ и 2Х2)
Аудио #2: Английский (MP3, 2 ch, 128Кбит/с; AC3, 6 ch, 384 Кбит/с - 448 Кбит/с) (Оригинал)

Дополнительная информация:

Русский перевод (РЕН-ТВ и 2Х2): Ирина Савина, Борис Быстров, Вадим Андреев, Вячеслав Баранов, Александр Рыжков, Денис Некрасов, Людмила Гнилова

MediaInfo:

512x384

Полное имя : \Simpsons\Season_16\Simpsons.S16E10.avi
Формат : AVI
Формат/Информация : Audio Video Interleave
Размер файла : 189 Мбайт
Продолжительность : 21 м.
Общий поток : 1226 Кбит/сек
Программа кодирования : VirtualDubMod 1.5.10.1 (build 2439/release)
Библиотека кодирования : VirtualDubMod build 2439/release
Видео
Идентификатор : 0
Формат : MPEG-4 Visual
Профиль формата : Advanced [email protected]
Параметр BVOP формата : 2
Параметр QPel формата : Нет
Параметр GMC формата : Без точки перехода
Параметр матрицы формата : Default (H.263)
Режим смешивания : Сжатый битовый поток
Идентификатор кодека : XVID
Идентификатор кодека/Подсказка : XviD
Продолжительность : 21 м.
Битрейт : 988 Кбит/сек
Ширина : 512 пикселей
Высота : 384 пикселя
Соотношение сторон : 4:3
Частота кадров : 23,976 кадра/сек
Цветовое пространство : YUV
Субдискретизация насыщенности : 4:2:0
Битовая глубина : 8 бит
Тип развёртки : Прогрессивная
Метод сжатия : С потерями
Бит/(Пиксели*Кадры) : 0.210
Размер потока : 152 Мбайт (81%)
Библиотека кодирования : XviD 1.0.2 (UTC 2004-08-29)
Аудио #1
Идентификатор : 1
Формат : MPEG Audio
Версия формата : Version 1
Профиль формата : Layer 3
Режим : Joint stereo
Расширение режима : MS Stereo
Идентификатор кодека : 55
Идентификатор кодека/Подсказка : MP3
Продолжительность : 21 м.
Вид битрейта : Постоянный
Битрейт : 96,0 Кбит/сек
Каналы : 2 канала
Частота : 44,1 КГц
Метод сжатия : С потерями
Размер потока : 14,8 Мбайт (8%)
Выравнивание : Разделение по промежуткам
Продолжительность промежутка : 42 мс. (1,00 видеокадр)
Время предзагрузки промежутка : 500 мс.
Библиотека кодирования : LAME3.96.1
Аудио #2
Идентификатор : 2
Формат : MPEG Audio
Версия формата : Version 1
Профиль формата : Layer 3
Режим : Joint stereo
Расширение режима : MS Stereo
Идентификатор кодека : 55
Идентификатор кодека/Подсказка : MP3
Продолжительность : 21 м.
Вид битрейта : Постоянный
Битрейт : 128 Кбит/сек
Каналы : 2 канала
Частота : 44,1 КГц
Метод сжатия : С потерями
Размер потока : 19,7 Мбайт (10%)
Выравнивание : Разделение по промежуткам
Продолжительность промежутка : 42 мс. (1,00 видеокадр)
Время предзагрузки промежутка : 500 мс.

640x480

Полное имя : \Simpsons\Season_09\Simpsons.S09E10.avi
Формат : AVI
Формат/Информация : Audio Video Interleave
Профиль формата : OpenDML
Настройки формата : rec
Размер файла : 234 Мбайт
Продолжительность : 22 м.
Общий поток : 1432 Кбит/сек
Программа кодирования : AVI-Mux GUI 1.17.8.3, Feb 16 201019:42:50
Видео
Идентификатор : 0
Формат : MPEG-4 Visual
Параметр BVOP формата : 1
Параметр QPel формата : Нет
Параметр GMC формата : Без точки перехода
Параметр матрицы формата : Default (H.263)
Режим смешивания : Сжатый битовый поток
Идентификатор кодека : DX50
Идентификатор кодека/Подсказка : DivX 5
Продолжительность : 22 м.
Битрейт : 850 Кбит/сек
Ширина : 640 пикселей
Высота : 480 пикселей
Соотношение сторон : 4:3
Частота кадров : 23,976 кадра/сек
Цветовое пространство : YUV
Субдискретизация насыщенности : 4:2:0
Битовая глубина : 8 бит
Тип развёртки : Прогрессивная
Метод сжатия : С потерями
Бит/(Пиксели*Кадры) : 0.115
Размер потока : 139 Мбайт (59%)
Библиотека кодирования : DivX 6.8.0 Converter 6.6
Аудио #1
Идентификатор : 1
Формат : MPEG Audio
Версия формата : Version 1
Профиль формата : Layer 3
Режим : Dual mono
Идентификатор кодека : 55
Идентификатор кодека/Подсказка : MP3
Продолжительность : 22 м.
Вид битрейта : Постоянный
Битрейт : 128 Кбит/сек
Каналы : 2 канала
Частота : 44,1 КГц
Метод сжатия : С потерями
Размер потока : 20,9 Мбайт (9%)
Выравнивание : Соединение по промежуткам
Продолжительность промежутка : 606 мс. (14,53 видеокадров)
Время предзагрузки промежутка : 208 мс.
Заголовок : Audio
Аудио #2
Идентификатор : 2
Формат : AC-3
Формат/Информация : Audio Coding 3
Расширение режима : CM (complete main)
Параметр Endianness формата : Big
Идентификатор кодека : 2000
Продолжительность : 22 м.
Вид битрейта : Постоянный
Битрейт : 448 Кбит/сек
Каналы : 6 каналов
Расположение каналов : Front: L C R, Side: L R, LFE
Частота : 48,0 КГц
Битовая глубина : 16 бит
Метод сжатия : С потерями
Размер потока : 73,2 Мбайт (31%)
Выравнивание : Соединение по промежуткам
Продолжительность промежутка : 64 мс. (1,53 видеокадра)
Время предзагрузки промежутка : 192 мс.

656x480

Полное имя : \Simpsons\Season_07\Simpsons.S07E07.avi
Формат : AVI
Формат/Информация : Audio Video Interleave
Профиль формата : OpenDML
Настройки формата : rec
Размер файла : 234 Мбайт
Продолжительность : 22 м.
Общий поток : 1432 Кбит/сек
Программа кодирования : AVI-Mux GUI 1.17.8.3, Feb 16 201019:42:50
Видео
Идентификатор : 0
Формат : MPEG-4 Visual
Параметр BVOP формата : 1
Параметр QPel формата : Нет
Параметр GMC формата : Без точки перехода
Параметр матрицы формата : Default (H.263)
Режим смешивания : Сжатый битовый поток
Идентификатор кодека : DX50
Идентификатор кодека/Подсказка : DivX 5
Продолжительность : 22 м.
Битрейт : 850 Кбит/сек
Ширина : 656 пикселей
Высота : 480 пикселей
Соотношение сторон : 4:3
Частота кадров : 23,976 кадра/сек
Цветовое пространство : YUV
Субдискретизация насыщенности : 4:2:0
Битовая глубина : 8 бит
Тип развёртки : Прогрессивная
Метод сжатия : С потерями
Бит/(Пиксели*Кадры) : 0.113
Размер потока : 139 Мбайт (59%)
Библиотека кодирования : DivX 6.8.0 Converter 6.6
Аудио #1
Идентификатор : 1
Формат : MPEG Audio
Версия формата : Version 1
Профиль формата : Layer 3
Режим : Dual mono
Идентификатор кодека : 55
Идентификатор кодека/Подсказка : MP3
Продолжительность : 22 м.
Вид битрейта : Постоянный
Битрейт : 128 Кбит/сек
Каналы : 2 канала
Частота : 48,0 КГц
Метод сжатия : С потерями
Размер потока : 20,9 Мбайт (9%)
Выравнивание : Соединение по промежуткам
Продолжительность промежутка : 606 мс. (14,52 видеокадров)
Время предзагрузки промежутка : 216 мс.
Заголовок : Audio
Аудио #2
Идентификатор : 2
Формат : AC-3
Формат/Информация : Audio Coding 3
Расширение режима : CM (complete main)
Параметр Endianness формата : Big
Идентификатор кодека : 2000
Продолжительность : 22 м.
Вид битрейта : Постоянный
Битрейт : 448 Кбит/сек
Каналы : 6 каналов
Расположение каналов : Front: L C R, Side: L R, LFE
Частота : 48,0 КГц
Битовая глубина : 16 бит
Метод сжатия : С потерями
Размер потока : 73,2 Мбайт (31%)
Выравнивание : Соединение по промежуткам
Продолжительность промежутка : 64 мс. (1,53 видеокадра)
Время предзагрузки промежутка : 192 мс.

720x400

Полное имя : \Simpsons\Season_21\Simpsons.S21E16.avi
Формат : AVI
Формат/Информация : Audio Video Interleave
Профиль формата : OpenDML
Настройки формата : rec
Размер файла : 265 Мбайт
Продолжительность : 22 м.
Общий поток : 1683 Кбит/сек
Название фильма :
Программа кодирования : AVI-Mux GUI 1.17.8.3, Feb 16 201019:42:50
Видео
Идентификатор : 0
Формат : MPEG-4 Visual
Профиль формата : Advanced [email protected]
Параметр BVOP формата : 3
Параметр QPel формата : Нет
Параметр GMC формата : Без точки перехода
Параметр матрицы формата : Default (MPEG)
Идентификатор кодека : XVID
Идентификатор кодека/Подсказка : XviD
Продолжительность : 22 м.
Битрейт : 1100 Кбит/сек
Ширина : 720 пикселей
Высота : 400 пикселей
Соотношение сторон : 16:9
Частота кадров : 23,976 кадра/сек
Цветовое пространство : YUV
Субдискретизация насыщенности : 4:2:0
Битовая глубина : 8 бит
Тип развёртки : Прогрессивная
Метод сжатия : С потерями
Бит/(Пиксели*Кадры) : 0.159
Размер потока : 173 Мбайт (65%)
Библиотека кодирования : XviD 1.2.1 (UTC 2008-12-04)
Аудио #1
Идентификатор : 1
Формат : AC-3
Формат/Информация : Audio Coding 3
Расширение режима : CM (complete main)
Параметр Endianness формата : Big
Идентификатор кодека : 2000
Продолжительность : 22 м.
Вид битрейта : Постоянный
Битрейт : 192 Кбит/сек
Каналы : 2 канала
Расположение каналов : Front: L R
Частота : 48,0 КГц
Битовая глубина : 16 бит
Метод сжатия : С потерями
Размер потока : 30,2 Мбайт (11%)
Выравнивание : Соединение по промежуткам
Продолжительность промежутка : 64 мс. (1,53 видеокадра)
Время предзагрузки промежутка : 192 мс.
Аудио #2
Идентификатор : 2
Формат : AC-3
Формат/Информация : Audio Coding 3
Расширение режима : CM (complete main)
Параметр Endianness формата : Big
Идентификатор кодека : 2000
Продолжительность : 22 м.
Вид битрейта : Постоянный
Битрейт : 384 Кбит/сек
Каналы : 6 каналов
Расположение каналов : Front: L C R, Side: L R, LFE
Частота : 48,0 КГц
Битовая глубина : 16 бит
Метод сжатия : С потерями
Размер потока : 60,5 Мбайт (23%)
Выравнивание : Соединение по промежуткам
Продолжительность промежутка : 64 мс. (1,53 видеокадра)
Время предзагрузки промежутка : 192 мс.

720x528

Полное имя : \Simpsons\Season_12\Simpsons.S12E10.avi
Формат : AVI
Формат/Информация : Audio Video Interleave
Профиль формата : OpenDML
Настройки формата : rec
Размер файла : 266 Мбайт
Продолжительность : 21 м.
Общий поток : 1716 Кбит/сек
Программа кодирования : AVI-Mux GUI 1.17.8.3, Feb 16 201019:42:50
Видео
Идентификатор : 0
Формат : MPEG-4 Visual
Профиль формата : Advanced [email protected]
Параметр BVOP формата : 4
Параметр QPel формата : Нет
Параметр GMC формата : Без точки перехода
Параметр матрицы формата : Default (H.263)
Идентификатор кодека : XVID
Идентификатор кодека/Подсказка : XviD
Продолжительность : 21 м.
Битрейт : 1068 Кбит/сек
Ширина : 720 пикселей
Высота : 528 пикселей
Соотношение сторон : 4:3
Частота кадров : 25,000 кадров/сек
Цветовое пространство : YUV
Субдискретизация насыщенности : 4:2:0
Битовая глубина : 8 бит
Тип развёртки : Прогрессивная
Метод сжатия : С потерями
Бит/(Пиксели*Кадры) : 0.112
Размер потока : 165 Мбайт (62%)
Библиотека кодирования : XviD 1.2.1 (UTC 2008-12-04)
Аудио #1
Идентификатор : 1
Формат : AC-3
Формат/Информация : Audio Coding 3
Расширение режима : CM (complete main)
Параметр Endianness формата : Big
Идентификатор кодека : 2000
Продолжительность : 21 м.
Вид битрейта : Постоянный
Битрейт : 192 Кбит/сек
Каналы : 2 канала
Расположение каналов : Front: L R
Частота : 48,0 КГц
Битовая глубина : 16 бит
Метод сжатия : С потерями
Размер потока : 29,7 Мбайт (11%)
Выравнивание : Соединение по промежуткам
Продолжительность промежутка : 64 мс. (1,60 видеокадра)
Время предзагрузки промежутка : 192 мс.
Аудио #2
Идентификатор : 2
Формат : AC-3
Формат/Информация : Audio Coding 3
Расширение режима : CM (complete main)
Параметр Endianness формата : Big
Идентификатор кодека : 2000
Продолжительность : 21 м.
Вид битрейта : Постоянный
Битрейт : 448 Кбит/сек
Каналы : 6 каналов
Расположение каналов : Front: L C R, Side: L R, LFE
Частота : 48,0 КГц
Битовая глубина : 16 бит
Метод сжатия : С потерями
Размер потока : 69,4 Мбайт (26%)
Выравнивание : Соединение по промежуткам
Продолжительность промежутка : 64 мс. (1,60 видеокадра)
Время предзагрузки промежутка : 192 мс.

720x544

Полное имя : \Simpsons\Season_14\Simpsons.S14E06.avi
Формат : AVI
Формат/Информация : Audio Video Interleave
Профиль формата : OpenDML
Настройки формата : rec
Размер файла : 272 Мбайт
Продолжительность : 22 м.
Общий поток : 1684 Кбит/сек
Программа кодирования : AVI-Mux GUI 1.17.8.3, Feb 16 201019:42:50
Видео
Идентификатор : 0
Формат : MPEG-4 Visual
Профиль формата : Advanced [email protected]
Параметр BVOP формата : 2
Параметр QPel формата : Нет
Параметр GMC формата : Без точки перехода
Параметр матрицы формата : Default (H.263)
Идентификатор кодека : XVID
Идентификатор кодека/Подсказка : XviD
Продолжительность : 22 м.
Битрейт : 1100 Кбит/сек
Ширина : 720 пикселей
Высота : 544 пикселя
Соотношение сторон : 4:3
Частота кадров : 23,976 кадра/сек
Цветовое пространство : YUV
Субдискретизация насыщенности : 4:2:0
Битовая глубина : 8 бит
Тип развёртки : Прогрессивная
Метод сжатия : С потерями
Бит/(Пиксели*Кадры) : 0.117
Размер потока : 178 Мбайт (65%)
Библиотека кодирования : XviD 1.2.1 (UTC 2008-12-04)
Аудио #1
Идентификатор : 1
Формат : AC-3
Формат/Информация : Audio Coding 3
Расширение режима : CM (complete main)
Параметр Endianness формата : Big
Идентификатор кодека : 2000
Продолжительность : 22 м.
Вид битрейта : Постоянный
Битрейт : 192 Кбит/сек
Каналы : 2 канала
Расположение каналов : Front: L R
Частота : 48,0 КГц
Битовая глубина : 16 бит
Метод сжатия : С потерями
Размер потока : 31,1 Мбайт (11%)
Выравнивание : Соединение по промежуткам
Продолжительность промежутка : 64 мс. (1,53 видеокадра)
Время предзагрузки промежутка : 192 мс.
Аудио #2
Идентификатор : 2
Формат : AC-3
Формат/Информация : Audio Coding 3
Расширение режима : CM (complete main)
Параметр Endianness формата : Big
Идентификатор кодека : 2000
Продолжительность : 22 м.
Вид битрейта : Постоянный
Битрейт : 384 Кбит/сек
Каналы : 6 каналов
Расположение каналов : Front: L C R, Side: L R, LFE
Частота : 48,0 КГц
Битовая глубина : 16 бит
Метод сжатия : С потерями
Размер потока : 62,1 Мбайт (23%)
Выравнивание : Соединение по промежуткам
Продолжительность промежутка : 64 мс. (1,53 видеокадра)
Время предзагрузки промежутка : 192 мс.

Список серий:

1 Сезон

1. Симпсоны готовят на открытом огне
2. Барт – Гений
3. Одиссея Гомера
4. Нет места позорнее дома
5. Барт – генерал
6. Бедная Лиза
7. Зов Симпсонов
8 .Голова-обличитель
9. Жизнь на быстрой дорожке
10. Вечеринка Гомера
11. Гроздья гнева
12. Красти арестовывают!
13. Один очаровательный вечер

2 Сезон

1. Барт получает 2
2. Симпсон и Делила
3. Дом Ужасов
4. По 2 машины в каждый гараж, по 3 глаза каждой рыбе
5. Танцующий Гомер
6. Мёртвое общество гольфа
7. Барт против Дня благодарения
8. Барт – Сорвиголова
9. Щекотка, Царапка и Мардж
10. Барта сбивает машина
11. 1 рыба, 2 рыбы, рыба-собака, голубая рыба
12. Наш путь
13. Гомер против Лизы и восьмой заповеди
14. Прекрасный директор
15. О братишка, где же ты?
16. Собака Барта получает 2
17. Старые деньги
18. Сила искусства
19. Замена Лизы
20. Война Симпсонов
21. Трое мужчин и комикс
22. Кровная вражда

3 Сезон

01. Совершенно безумный папа
02. Мистер Лиза едет в Вашингтон
03. Когда Фландерс обанкротился
04. Барт - убийца
05. Гомер в словаре
06. Клоун в отца
07. Дом ужасов II
08. Лизин Пони
09. Субботы грома
10. Горючий Мо
11. Бернс продает АЭС
12. Я женат на Мардж
13. Радио Барт
14. Лиза - грек
15. Гомер один дома
16. Барт любовник
17. Гомер с битой
18. Раздельные каникулы
19. Собака смерти
20. Полковник Гомер
21. Черный вдовец
22. Шоу Отто
23. Друг Барта влюбился
24. Брат, одолжи монетку?

4 Сезон

01. Лагерь Красти
02. Трамвай имени Мардж
03. Гомер - еретик
04. Лиза - королева красоты
05. Дом ужасов III
06. Щекотка и Царапка: фильм
07. Мардж устраивается на работу
08. Новый ребенок в квартале
09. Мистер Плуг
10. Первое слово Лизы
11. Тройное шунтирование Гомера
12. Мардж против монорельса
13. Выбор Сельмы
14. Брат с той же планеты
15. Я люблю Лизу
16 Без пива
17. Последняя надежда Спрингфилда
18. Как это было: Клип-шоу Симпсонов
19. Фронт
20. День изгнания
21. Оковы Мардж
22. Шоу Красти отменяется

5 Сезон

01. Квартет Гомера
02. Мыс Страха
03. Гомер поступает в колледж
04. Бутон розы
05. Дом ужасов IV
06. Мардж в бегах
07 Внутренний ребенок Барта
08. Бойскауты в районе
09. Последнее искушение Гомера
10. $прингфилд или Легальные азартные игры
11. Гомер и Комитет Бдительности
12. Барт становится знаменитым
13. Гомер и Апу
14. Лиза против Малибу Стейси
15. Гомер в Космосе
16. Гомер любит Фландерса
17. Барт получает слона
18. Наследник Бернса
19. Сладкая песня Сеймура Скиннера
20. Парень который слишком много знал
21. Возлюбленный Леди Бувье
22. Тайны успешного брака

6 Сезон

1. Тьма Барта Симпсона
2. Противник Лизы
3. Еще одно клип шоу Симпсонов
4. Итчи и Скрэтчи мир
5. Сайдшоу Боб и его месть
6. Деревянный дом ужасов
7. Подружка Барта
8. Лиза на льду
9. Гомер плохой человек
10. Дедушка против сексуального старения
11. Боязнь полететь или летать
12. Гомер величайший
13. Мэгги делает деревцо
14. Комета Барта симпсона
15. Гомми тот самый клоун
16. Барт против Австралии
17. Гомер против Пэтти и Сэльмы
18. Звезда это - Бёрнс
19. Свадьба лизы
20. Много и один greyhound
21. ДТА не банды!
22. Круглый Спрингфилд или роунд Спрингфилд
23. Связь с Спрингфилдом
24. Лимонное дерево
25. Кто стрельнул в мистера Бёрнса 1 часть

7 Сезон

1. Кто стрелял в мистера Бернса? Часть 2
2. Радиоактивный человек
3. Дом, милый Дом
4. Барт продает душу
5. Лиза-вегетарианка
6. Хэллоуин VI
7. Гомер королевского размера
8. Мамаша Симпсон
9. Последний выпад Боба
10. 138-й выпуск Симпсонов: Перлы
11. Мардж нечем гордиться
12. Два плохих соседа
13. Команда Гомера
14. Эпизоды классовой борьбы в Спрингфилде
15. Доносчик Барт
16. Лиза против предрассудков
17. Гомер в роли Смиттерса
18. Рыбка по имени Сельма
19. День, когда умерло насилие
20. Барт с большой дороги
21. 22 фрагмента из жизни Спрингфилда
22. Проклятье Летучих Пираний
23. Много Апу ни о чем
24. Гомеропалуза
25. Ежегодник Лизы

8 Сезон

1. Домик Ужасов - восьмой сезон
2. Ты можешь переехать только дважды
3. Гомер непадающий
4. Бернс, ребенок Бернса
5. Барт в теневом бизнесе
6. Милхаузы разводятся
7. Лиза встречает свою судьбу
8. Ураган Нэдди
9. Таинственное путешествие нашего Гомера
10. Спрингфилдские материалы
11. Запутанный мир Мардж Симпсон
12. Горы сумасшествия
13. Раздосовонное ворчание
14. Щекотка и Царапка и Лайка шоу
15. Фобия Гомера
16. Брат из другой серии
17. Моя сестра, моя няня
18. Гомер против 8ой поправки
19. Конфедициальный класс в школе
20. Собачий мятеж
21. Старик и Лиза
22. Мы верим в Мардж
23. Враг Гомера
24. Дополнительное Выступление Симпсонов
25. Тайная война Лизы Симпсон

9 Сезон

1. "Нью-Йорк Сити против Гомера Симпсона"
2. "Директор и нищий"
3. "Саксофон Лизы"
4. "Дом Ужасов VIII"
5. "Заряженная Семья"
6. "Барт Звезда"
7. "Две Миссис Нахасапимапителон"
8. "Скептик Лиза"
9. "Реальность Кусается"
10. "Чудо на Вечно Зеленом Бульваре"
11. "Все поют, все танцуют"
12. "Карнавальный Барт"
13. "Радость секты"
14. "Автобус"
15. "Последнее искушение Красти"
16. "Мошенничество со страховкой"
17. "Лиза Симпсон"
18. "Маленький Вигги"
19. "Течение Симпсона"
20. "Проблема на триллион"
21. "Девчушник"
22. "Битва Титанов"
23. "Король горы"
24. "Мы потеряли нашу Лизу"
25. "Прирожденные целоваться"

10 Сезон

1. Жирный бизнес
2. Волшебник Вечнозеленной Террасы
3. Мамаша Барт
4. Домик ужасов IX
5. Когда перехитрил звезду
6. Doh на ветру
7. Лиза получает пятерку
8. Гомер Симпсон в "Неприяностях с почкой"
9. Охрана мэра
10. Да здравствует Нэд Фландерс
11. Дикий Барт непобедим
12. Воскресенье, отвратительное воскресенье
13. Гомер Макс
14. Я Купидон
15. Мардж Симпсон в "Гудящих желтых звонках"
16. Лизино заключение
17. Максимальное Гомероускорение
18. Библейские Истории Симпсонов
19. Мам и Пап Арт
20. Старик и Студент
21. Монти "Не могу купить любви"
22. Они спасли Лизины мозги
23. Тридцать минут в Токио

11 Сезон

1. Ужасающая ошибка
2. Маленький помощник брата
3. Угадайте, кто будет критиковать обеды?
4. Дом ужасов 10
5. И-Й-И-Й-(раздраженное ворчание)
6. Привет, папуля
7. Восемь шалунов
8. Возьми мою жену, грязный мужлан
9. Грязные деньги
10. Маленькая большая мама
11. Неверующий
12. Семья в особняке
13. Верхом на Галактике
14. Одинокий Фландерс
15. Миссионерство невыполнимо
16. Красавчик Мо
17. Барт в будущем
18. Дни пьянства и ругательств
19. Убей аллигатора и беги
20. Последний стэп-танец в Спрингфилде
21. Безумная, безумная, безумная, безумная Мардж
22. Закулисье

12 Сезон

1. Домик ужасов - двенадцатый сезон
2. История двух Спрингфилдов
3. Ненормальный клоун
4. Лиза спасательница деревьев
5. Гомер против достоинства
6. Опасный компьютер
7. Великое похищение денег
8. Чувство снега Скиннера
9. ХОМР
10. Поке Мама
11. Самый худший эпизод
12. Теннис проказник
13. День выскочки
14. Новые дети в районе
15. Голодный, голодный Гомер
16. Пока, зануда
17. Сафари Симпсонов
18. Трилогия ошибок
19. Я отправляюсь в богословенную землю
20. Дети Меньшего Болвана
21. Небылицы Спрингфилда

13 Сезон

1. Дом Ужасов - тринадцатый сезон
2. Родители в Ответе
3. Гомер Мо
4. Бернс Влюбился
5. Годы Боли
6. Она Немного Верит
7. Скандал в Семье
8. Кисло-сладкая Мардж
9. Челюсть Заклинило
10. Почти Пристойное Предложение
11. Барт Хочет то, что Хочет
12. Последний Пистолет на Западе
13. Старик и Ключ
14. Рассказы от Общественного Домена
15. Во Всем Виновата Лиза
16. Уикенд у Бернси
17. Жаренный Гамп
18. Я Яростный и Желтый
19. Милейший Апу
20. Маленькая Девочка в Большой Десятке
21. Жаренная Игра
22. У Папы Новенький Значок

14 Сезон

1. Дом Ужасов - четырнадцатый сезон
2. Как Я Провел Мои Бренчащие Каникулы
3. Барт против Лизы против третьего класса
4. Крупная Мардж
5. Суматошное Пристанище
6. Великий Подлый Детектив
7. Особая Эдна
8. Папа Который Знал Слишком Мало
9. Сильные руки Мардж
10. Молись о чем хочешь
11. Барта использовали
12. Я Проверяю Так Быстро Как Могу
13. Звезда Родилась Снова
14. Мистер Спритз Едет В Вашингтон
15. Исполнительный D'ohректор
16. Звездное небо
17. Три Гея В Кондо
18. Где мое рачно, чувак?
19. Старое кричащее брюхо
20. Остановите мою жену, пожалуйста
21. Война Барта
22. Прекрасные глаза Мо

15 Сезон

1. Дом ужасов - пятнадцатый сезон
2. Моя мать - автоугонщик
3. Президент, который носит бусы
4. Монологи Регины
5. Жирный и пушистый
6. Сегодня клоун - я
7. Да, это 15й сезон
8. Мардж против одиноких, стариков, бездетных пар и подростков, и гомосексуалистов
9. Я, робот
10. Роман сумасшедшей домохозяйки
11. Исторический экскурс от Мардж
12. Милхауз здесь больше не живет
13. Умная и еще умнее
14. Зиф, который пришел на обед
15. День зависимости
16. Барт в тюрьме
17. Моя большая толстая стремная свадьба
18. Поймай их, если сможешь
19. Простой Симпсон
20. Какими мы не были
21. Барт-портящий флаг
22. Новости мошенников

16 Сезон

1. Дом ужасов - шестнадцатый сезон
2. Духовочная война
3. В постели с врагом
4. Подруга детства
5. Жирдяй и маленький мальчик
6. Контрабандисты
7. Пивная Мама
8. Гомер - хореограф
9. Шутливый рэп
10. Кое-что о браках
11. В ясный день я не вижу свою сестру
12. Ребенок Сэльмы
13. Мобильный Гомер
14. Семь пивных доносчиков
15. Футур-драма
16. Не бойся кровельщика
17. Мальчик с разбитым сердцем
18. Беспокойная звезда
19. Cлава Богу, конец света
20. В далеке от Гомера
21. Отец, Сын и гость святой

18 Сезон

1. Костер Ламантинов
2. Девочка, которая слишком мало спала
3. Милхаус из песка и тумана
4. Дом Ужасов - семнадцатый сезон
5. Отравление сына Мардж
6. Смотри, Гомер бежит
7. Веселые помидорины
8. Итальянский Боб
9. Рождественские истории Симпсонов
10. История с настоящим отцом Гомера
11. Наша дорога - в Кудыкиногорск
12. Мой прекрасный леди
13. Почти бесконечная история
14. У Барта две мамы
15. Гомер Симпсон - это твоя жена
16. Эйби на миллион
17. Гомер - божество
18. Самые мокрые из когда-либо рассказанных историй
19. Девочки просто хотят математики
20. Касательно Мардж
21. Обезьяний процесс
22. Мардж и Гомер спасают чужой брак

18 Сезон

1. Головорез, повар, его жена и ее Гомер
2. Джаззи и кошечки
3. Прошу, Гомер, не стучи
4. Дом ужасов - восемнадцатый сезон
5. Джи Ай
6. Мо и Лиза
7. Мороженое Марджи
8. Хохотунская парочка
9. "Убить Гила". Части 1-я и 2-я
10. Водная жена
11. Месть - это блюдо, которое лучше подавать три раза
12. Маленькая большая девочка
13. Спрингфилдские мечты
14. Звуки музыки
15. Ромео и Джульетта
16. Гомерацци
17. Геймер Мардж
18. Парни неудачи
19. Крюк и лестница
20. Стой, или моя собака будет стрелять!
21. 24 минуты
22. Вы, Кент, всегда говорите что хотите

19 Сезон

1. Взлеты и падения
2. Гомер в Севилье
3. Эвакуатор приезжает в полночь
4. Не хочу знать, почему поет запертая птица
5. Дом ужасов - девятнадцатый сезон
6. Маленький сиротка Милхауз
7. Мужья и Ножи
8. Похороны злодея
9. Вечное сияние Симпсона разума
10. Из многих - Виггам
11. Шоу 90-х
12. Любовь по Спрингфилдски
13. Конкурент Барта
14. Б значит ботаник
15. Дым над дочуркой
16. Папа, ну будь человеком!
17. Апокалипсис Телят
18. Документальное кино о Симпсонах
19. Мона уходит
20. Все о Лизе

20 Сезон

1. Секс, пироги и глупости
2. Потерянный Мобильник
3. Дважды, дважды, дела у Барта не важны
4. Дом Ужасов - двадцатый сезон
5. Опасные повороты
6. Гомер и Лиза обмениваются любезностями
7. Майподы и взрывчатка
8. Бернс и пчелы
9. Лиза – королева драмы
10. Возьми мою жизнь, пожалуйста
11. Как был пройден тест
12. Больше никаких кредитов
13. Уходи Мегги, уходи
14. Во имя дедушки
15. Свадебная катастрофа
16. Эни Бени Майя Мо
17. Добрый, грустный, обдолбанный
18. Папа знает как хуже
19. Вейверли Хиллс 9-0-2-1, Эх
20. 4 великих женщины и маникюр
21. Прибытие в Гомерику

21 Сезон

1. Гомер - громадина
2. Миссис Закрабапл
3. Вся надежда на жену
4. Дом ужасов - двадцать первый сезон
5. Дьявол носит Нада
6. Приколы и зелень
7. Деревенщины и метлы
8. О, брат, я твой Барт
9. Четверги с Эйби
10. Однажды в Спрингфилде
11. Проблемка на Миллион
12. Мальчик и Кёрлочка
13. Цвет Желтый
14. Открытки на размолвку
15. Неожиданный Второй Способ
16. Величайшая Отругательная История
17. Икс-ключительная Американская История
18. Шеф сердешный
19. Малышка и Кит
20. Шпионить с Любовью
21. Грусть Письма Мо
22. Убийца по соседству
23. Суди меня нежно

22 Сезон

1. Мюзикл начальной школы
2. Лиза – инвестор
3. ДеньгоБАРТ
4. Дом ужасов XXI
5. Лиза Симпсон, это не твоя жизнь
6. Дурак Монти
7. Как громко жует эта птичка в окне?
8. Борьба перед рождеством
9. Толстяк Донни
10. Мамаши, которых я бы хотел забыть
11. Пылающий Мо
12. Отец Гомер
13. Синий и Серый
14. Злобный папа
15. История скорпионов
16. Милые летние мечты
17. Любовь – удушающая вещь
18. Великая Симпсия
19. Домохозяйки Жирного Тони
20. Гомер Руки-Ножницы
21. 500 ключей
22. Лжепохищение Неда

23 Сезон

01. Сокол и чёртов человек
02. Дух Рузвельтов унимает Барта
03. Дом ужасов 22
04. Вы заменимы
05. Жена-гурман
06. Работа над книгой
07. Человек в синих фланелевых брюках
08. Де-ся-ти-про-цент-ное-е решение
09. Пройденные праздники будущего
10. Политические неумехи с Гомером Симпсоном
11. Чёртова сеть
12. Мо идёт из грязи в князи
13. И восходит дочь
14. Наконец ушедшие
15. Выход через «На скорую руку»
16. Как я обмочил вашу маму
17. Они, робот
18. Не обманывай меня, Барт
19. Абсолютно весёлая вещь, которую Барт больше никогда не сделает
20. Шпион, который меня обучил
21. Нед и Эдна вместе
22. Лиза и Гага

24 Сезон

01. Ерунда чистой воды
02. Дом ужасов 23
03. Риски завести детей
04. Прощай, Эйби, прощай
05. Мелочные парни
06. Дерево, растущее в Спрингфилде
07. День, когда Земля стала крутой
08. К дворняге с любовью
09. Гомер отправляется в подготовительную школу
10. Тест перед попыткой
11. Замена опекуна
12. Любовь — это вещь, разбитая на много кусочков
13. Едва ли, Кирк
14. Замечательный дедушка
15. Синяк под глаз, пожалуйста
16. Суд Тёмного рыцаря
17. Чего хотят анимированные женщины
18. Проповеднические разногласия
19. Виски-бизнес
20. Потрясающий мошенник
21. Сага о Карле
22. Опасности в поезде

Скриншоты

Яндекс.Метрика
Рейтинг@Mail.ru