Тур де Шанс / La grande boucle (Лоран Тюэль / Laurent Tuel) [2013 г., Комедия, спорт, HDRip] MVO (Line)

 

Создавать темы 20-Май-2014 02:12

-Тур де Шанс / La grande boucle-«Самые блистательные победы не даются в одиночку»- Производство: Франция, Fidélité Films, Bago Films, Wild Bunch
Год выпуска: 2013 г.
Жанр: Комедия, спорт
Продолжительность: 01:37:20
Мировая премьера: 12 июня 2013
Российская премьера: 8 мая 2014, «P&I Films»-Перевод: Профессиональный (многоголосый, закадровый) [Чистый звук]-Режиссер: Лоран Тюэль / Laurent Tuel
В ролях: Кловис Корнийяк, Були Ланнерс, Эри Абиттан, Бруно Лоше, Элоди Буше, Андре Маркон, Rose Caprais, Annick Christiaens, Paul GRANIER, Дуду Маста-Описание: От Франсуа уходит жена, считая его трусом и неудачником. Практически по той же причине босс его увольняет. Будучи большим фанатом Тур де Франс, Франсуа решает исполнить детскую мечту и отправляется по маршруту знаменитой велогонки за день до официального начала соревнований. Вдохновленные его вызовом брошенным официальному спорту, вскоре к нему присоединяются и другие любители. Теперь Франсуа готов соперничать в популярности с самим Тони Агнело, своим кумиром и фаворитом гонки.-Качество видео: HDRip
Контейнер: AVI
Видео кодек: XviD
Аудио кодек: AC3
Видео: 720x304 (2.37:1), 23.976 fps, XviD build 50 ~1816 kbps avg, 0.35 bit/pixel
Аудио: 48 kHz, AC3 Dolby Digital, 2/0 (L,R) ch, ~192 kbps
Cубтитры: отсутствуют

Media Info

General
Complete name : D:\Tur.de.shans.2013.P.HDRip.1400Mb.avi
Format : AVI
Format/Info : Audio Video Interleave
File size : 1.37 GiB
Duration : 1h 37mn
Overall bit rate : 2 018 Kbps
Writing application : VirtualDubMod 1.5.10.2 (build 2540/release)
Writing library : VirtualDubMod build 2540/release
Video
ID : 0
Format : MPEG-4 Visual
Format profile : Advanced [email protected]
Format settings, BVOP : 2
Format settings, QPel : No
Format settings, GMC : No warppoints
Format settings, Matrix : Custom
Codec ID : XVID
Codec ID/Hint : XviD
Duration : 1h 37mn
Bit rate : 1 816 Kbps
Width : 720 pixels
Height : 304 pixels
Display aspect ratio : 2.35:1
Frame rate : 23.976 fps
Color space : YUV
Chroma subsampling : 4:2:0
Bit depth : 8 bits
Scan type : Progressive
Compression mode : Lossy
Bits/(Pixel*Frame) : 0.346
Stream size : 1.24 GiB (90%)
Writing library : XviD 1.2.1 (UTC 2008-12-04)
Audio
ID : 1
Format : AC-3
Format/Info : Audio Coding 3
Mode extension : CM (complete main)
Format settings, Endianness : Big
Codec ID : 2000
Duration : 1h 37mn
Bit rate mode : Constant
Bit rate : 192 Kbps
Channel(s) : 2 channels
Channel positions : Front: L R
Sampling rate : 48.0 KHz
Bit depth : 16 bits
Compression mode : Lossy
Stream size : 134 MiB (10%)
Alignment : Split accross interleaves
Interleave, duration : 42 ms (1.00 video frame)
Interleave, preload duration : 500 ms

Скриншоты

Яндекс.Метрика
Рейтинг@Mail.ru