[ Сегодня на трекере фрилич! Идет свободное скачивание без начисления Download ]

Качели / Hustawka (Томаш Левкович / Tomasz Lewkowicz) [2010 г., Драма, DVDRip] VO [PashaUp]

 

Создавать темы 20-Май-2014 02:08

-Качели / Hustawka- Производство: Польша, Pro Cinema
Год выпуска: 2010 г.
Жанр: Драма
Продолжительность: 01:34:17
Мировая премьера: 17 сентября 2010-Перевод: Любительский (одноголосый, закадровый) [PashaUp]-Режиссер: Томаш Левкович / Tomasz Lewkowicz
В ролях: Войцех Зилински, Джоанна Орлеанска, Каролина Горчица, Мария Гладковска, Леон Харевич, Добромир Дымецкий, Каролина Пихот, Виолетта Арлак, Алдона Янковска-Описание: У 35-летнего Михаила семья -- красавица жена Анна и дочь Юстинка. Однако это не мешает ему влюбиться в чувственную Каролину. Он не собирается разводиться, но любовница ставит ему ультиматум...-Качество видео: DVDRip
Контейнер: AVI
Видео кодек: XviD
Аудио кодек: AC3
Видео: 688x384 (1.79:1), 25 fps, XviD build 58 ~1614 kbps avg, 0.24 bit/pixel
Аудио: 48 kHz, AC3 Dolby Digital, 3/2 (L,C,R,l,r) + LFE ch, ~448 kbps
Cубтитры: отсутствуют

Media Info

General
Complete name : D:\Hustawka.2010.DVDRip.avi
Format : AVI
Format/Info : Audio Video Interleave
File size : 1.36 GiB
Duration : 1h 34mn
Overall bit rate : 2 072 Kbps
Movie name : Hustawka.2010.DVDRip
Genre : Drama
Writing application : VirtualDubMod 1.5.10.2 (build 2540/release)
Original source form/Name : Movie
Video
ID : 0
Format : MPEG-4 Visual
Format profile : Advanced [email protected]
Format settings, BVOP : 2
Format settings, QPel : No
Format settings, GMC : No warppoints
Format settings, Matrix : Default (H.263)
Codec ID : XVID
Codec ID/Hint : XviD
Duration : 1h 34mn
Bit rate : 1 615 Kbps
Width : 688 pixels
Height : 384 pixels
Display aspect ratio : 16:9
Frame rate : 25.000 fps
Color space : YUV
Chroma subsampling : 4:2:0
Bit depth : 8 bits
Scan type : Progressive
Compression mode : Lossy
Bits/(Pixel*Frame) : 0.244
Stream size : 1.06 GiB (78%)
Writing library : XviD 58
Audio
ID : 1
Format : AC-3
Format/Info : Audio Coding 3
Mode extension : CM (complete main)
Format settings, Endianness : Big
Codec ID : 2000
Duration : 1h 34mn
Bit rate mode : Constant
Bit rate : 448 Kbps
Channel(s) : 6 channels
Channel positions : Front: L C R, Side: L R, LFE
Sampling rate : 48.0 KHz
Bit depth : 16 bits
Compression mode : Lossy
Stream size : 302 MiB (22%)
Alignment : Split accross interleaves
Interleave, duration : 40 ms (1.00 video frame)
Interleave, preload duration : 500 ms

Скриншоты

Яндекс.Метрика
Рейтинг@Mail.ru