[ Сегодня на трекере фрилич! Идет свободное скачивание без начисления Download ]

В пасти безумия / In The Mouth Of Madness (1994) BDRip 720p

 

Создавать темы 19-Май-2014 11:16

В пасти безумияIn The Mouth Of Madness
-

  • Год производства: 1994
  • Страна: США, New Line Cinema
  • Жанр: Ужасы, фэнтези, триллер, детектив
  • Продолжительность: 01:35:22
  • Перевод:
    Профессиональный многоголосый (НТВ)
    Профессиональный двухголосый (Инис / Союз Видео)
    Авторский одноголосый (А. Гаврилов)
    Авторский одноголосый (Ю. Сербин)

  • Субтитры: Русские, английские-
  • Режиссер:Джон Карпентер-
  • В ролях: Сэм Нилл, Джули Кармен, Юрген Прохнов, Дэвид Уорнер, Джон Гловер, Берни Кейси, Питер Джейсон, Чарлтон Хестон, Фрэнсис Бэй, Вильгельм фон Хомбург-
  • Описание: В центре фильма мрачная мистическая история о пропавшем писателе, написавшем книгу - бестселлер, прочитав которую, люди сходят с ума. Писателя разыскивает частный детектив, и поиски приводят его в город, описанный в книге, но отсутствующий на карте…-
  • Качество видеоBDRip 720p
  • Исходник: BDRemux 1080p
  • Формат видео: mkv
  • Видео кодек: H264
  • Аудио кодек: AC3|DTS
  • Видео: 1280x536 (2.40:1), 23.976 fps, 3 457 Kbps, 0.353 bit/pixel
  • Аудио: 48 kHz, AC3 2 ch ~192 kbps avg - НТВ
  • Аудио: 48 kHz, AC3 6 ch ~448 kbps avg - Инис / Союз Видео
  • Аудио: 48 kHz, AC3 6 ch ~448 kbps avg - А. Гаврилов
  • Аудио: 48 kHz, AC3 6 ch ~192 kbps avg - Ю. Сербин
  • Аудио: 48 kHz, DTS 6 ch ~1510 kbps avg - Оригинал-
  • Автор рипа: falco
-

Скриншоты:

MediaInfo

copyText_writeLink('this.parentNode.parentNode.nextSibling.nextSibling');
General
Unique ID                      : 254988012108313031966766744802909239555 (0xBFD4E7A0D6193626948E76E44C803903)
Complete name                  : D:\Торенты\V.pasti.bezumiya.1994.BDRip.720p.falco.mkv
Format                         : Matroska
Format version                 : Version 4 / Version 2
File size                      : 5.88 GiB
Duration                       : 1h 35mn
Overall bit rate mode          : Variable
Overall bit rate               : 8 824 Kbps
Encoded date                   : UTC 2014-05-19 01:39:49
Writing application            : mkvmerge v6.9.1 ('Blue Panther') 64bit built on Apr 18 2014 18:23:38
Writing library                : libebml v1.3.0 + libmatroska v1.4.1
Video
ID                             : 1
Format                         : AVC
Format/Info                    : Advanced Video Codec
Format profile                 : [email protected]
Format settings, CABAC         : Yes
Format settings, ReFrames      : 10 frames
Codec ID                       : V_MPEG4/ISO/AVC
Duration                       : 1h 35mn
Bit rate                       : 5 808 Kbps
Nominal bit rate               : 3 457 Kbps
Width                          : 1 280 pixels
Height                         : 536 pixels
Display aspect ratio           : 2.40:1
Frame rate                     : 23.976 fps
Color space                    : YUV
Chroma subsampling             : 4:2:0
Bit depth                      : 8 bits
Scan type                      : Progressive
Bits/(Pixel*Frame)             : 0.353
Stream size                    : 3.87 GiB (66%)
Writing library                : x264 core 130 r2273 b3065e6
Encoding settings              : cabac=1 / ref=10 / deblock=1:-1:-2 / analyse=0x3:0x133 / me=umh / subme=11 / psy=1 / psy_rd=1.00:0.10 / mixed_ref=1 / me_range=32 / chroma_me=1 / trellis=2 / 8x8dct=1 / cqm=0 / deadzone=21,11 / fast_pskip=0 / chroma_qp_offset=-3 / threads=6 / lookahead_threads=1 / sliced_threads=0 / nr=0 / decimate=0 / interlaced=0 / bluray_compat=0 / constrained_intra=0 / bframes=6 / b_pyramid=2 / b_adapt=2 / b_bias=0 / direct=3 / weightb=1 / open_gop=0 / weightp=2 / keyint=240 / keyint_min=23 / scenecut=40 / intra_refresh=0 / rc_lookahead=60 / rc=2pass / mbtree=1 / bitrate=3457 / ratetol=1.0 / qcomp=0.70 / qpmin=0 / qpmax=69 / qpstep=4 / cplxblur=20.0 / qblur=0.5 / vbv_maxrate=50000 / vbv_bufsize=62500 / nal_hrd=none / ip_ratio=1.35 / aq=1:1.00
Default                        : Yes
Forced                         : No
Audio #1
ID                             : 2
Format                         : AC-3
Format/Info                    : Audio Coding 3
Mode extension                 : CM (complete main)
Format settings, Endianness    : Big
Codec ID                       : A_AC3
Duration                       : 1h 35mn
Bit rate mode                  : Constant
Bit rate                       : 192 Kbps
Channel(s)                     : 2 channels
Channel positions              : Front: L R
Sampling rate                  : 48.0 KHz
Bit depth                      : 16 bits
Compression mode               : Lossy
Stream size                    : 131 MiB (2%)
Title                          : НТВ
Language                       : Russian
Default                        : Yes
Forced                         : Yes
Audio #2
ID                             : 3
Format                         : AC-3
Format/Info                    : Audio Coding 3
Mode extension                 : CM (complete main)
Format settings, Endianness    : Big
Codec ID                       : A_AC3
Duration                       : 1h 35mn
Bit rate mode                  : Constant
Bit rate                       : 448 Kbps
Channel(s)                     : 6 channels
Channel positions              : Front: L C R, Side: L R, LFE
Sampling rate                  : 48.0 KHz
Bit depth                      : 16 bits
Compression mode               : Lossy
Stream size                    : 306 MiB (5%)
Title                          : Инис
Language                       : Russian
Default                        : No
Forced                         : No
Audio #3
ID                             : 4
Format                         : AC-3
Format/Info                    : Audio Coding 3
Mode extension                 : CM (complete main)
Format settings, Endianness    : Big
Codec ID                       : A_AC3
Duration                       : 1h 35mn
Bit rate mode                  : Constant
Bit rate                       : 448 Kbps
Channel(s)                     : 6 channels
Channel positions              : Front: L C R, Side: L R, LFE
Sampling rate                  : 48.0 KHz
Bit depth                      : 16 bits
Compression mode               : Lossy
Stream size                    : 306 MiB (5%)
Title                          : Гаврилов
Language                       : Russian
Default                        : No
Forced                         : No
Audio #4
ID                             : 5
Format                         : AC-3
Format/Info                    : Audio Coding 3
Mode extension                 : CM (complete main)
Format settings, Endianness    : Big
Codec ID                       : A_AC3
Duration                       : 1h 35mn
Bit rate mode                  : Constant
Bit rate                       : 192 Kbps
Channel(s)                     : 2 channels
Channel positions              : Front: L R
Sampling rate                  : 48.0 KHz
Bit depth                      : 16 bits
Compression mode               : Lossy
Stream size                    : 131 MiB (2%)
Title                          : Сербин
Language                       : Russian
Default                        : No
Forced                         : No
Audio #5
ID                             : 6
Format                         : DTS
Format/Info                    : Digital Theater Systems
Format profile                 : MA / Core
Codec ID                       : A_DTS
Duration                       : 1h 35mn
Bit rate mode                  : Variable
Bit rate                       : 1 561 Kbps / 1 510 Kbps
Channel(s)                     : 6 channels
Channel positions              : Front: L C R, Side: L R, LFE
Sampling rate                  : 48.0 KHz
Bit depth                      : 24 bits
Compression mode               : Lossless / Lossy
Language                       : English
Default                        : No
Forced                         : No
Text #1
ID                             : 7
Format                         : UTF-8
Codec ID                       : S_TEXT/UTF8
Codec ID/Info                  : UTF-8 Plain Text
Language                       : Russian
Default                        : No
Forced                         : No
Text #2
ID                             : 8
Format                         : UTF-8
Codec ID                       : S_TEXT/UTF8
Codec ID/Info                  : UTF-8 Plain Text
Language                       : English
Default                        : No
Forced                         : No
Menu
00:00:00.000                   : en:Chapter 01
00:03:11.816                   : en:Chapter 02
00:07:23.985                   : en:Chapter 03
00:09:54.969                   : en:Chapter 04
00:12:16.777                   : en:Chapter 05
00:14:49.179                   : en:Chapter 06
00:19:25.622                   : en:Chapter 07
00:24:44.566                   : en:Chapter 08
00:28:04.808                   : en:Chapter 09
00:34:54.050                   : en:Chapter 10
00:37:33.501                   : en:Chapter 11
00:41:12.803                   : en:Chapter 12
00:44:52.398                   : en:Chapter 13
00:47:07.241                   : en:Chapter 14
00:50:04.001                   : en:Chapter 15
00:51:52.400                   : en:Chapter 16
00:56:16.498                   : en:Chapter 17
01:00:34.422                   : en:Chapter 18
01:05:48.027                   : en:Chapter 19
01:09:18.612                   : en:Chapter 20
01:14:22.833                   : en:Chapter 21
01:16:45.767                   : en:Chapter 22
01:18:07.432                   : en:Chapter 23
01:20:43.421                   : en:Chapter 24
01:22:48.588                   : en:Chapter 25
01:27:15.021                   : en:Chapter 26
01:29:16.726                   : en:Chapter 27
01:30:38.850                   : en:Chapter 28
Яндекс.Метрика
Рейтинг@Mail.ru