Помпеи / Pompeii (Пол У. С. Андерсон / Paul W.S. Anderson) [2014 г., боевик, драма, мелодрама, приключения, BDRip, 720p] Dub [Лицензия] + Sub (Rus, Eng) + Original (Eng)

 

Создавать темы 18-Май-2014 10:54

-Помпеи / Pompeii- Производство: США, Германия, Канада / Constantin Film Produktion GmbH, Don Carmody Productions, FilmDistrict, Impact Pictures
Год выпуска: 2014 г.
Жанр: боевик, драма, мелодрама, приключения
Продолжительность: 01:45:32
Мировая премьера: 18 февраля 2014
Российская премьера: 19 февраля 2014, «Парадиз»-Перевод: Профессиональный (полное дублирование) [Лицензия]
Оригинальный аудиопоток: английский-Режиссер: Пол У. С. Андерсон / Paul W.S. Anderson
В ролях: Саша Ройз, Кэрри-Энн Мосс, Адевале Акинойе-Агбаже, Эмили Браунинг, Джессика Лукас, Кифер Сазерленд, Кит Харингтон, Джо Пинг, Джаред Харрис, Карри Грэм-Описание: История любви раба Майло и благородной Кассии, обрученной с римским сенатором, на фоне извержения Везувия, которое навсегда стерло с лица земли древнеримский город Помпеи…- -Качество видео: BDRip
Контейнер: MKV
Стандарт разрешения: 720p
Видео кодек: H.264
Аудио кодек: AC3
Видео: 1280x534 (2,40:1), 23.976 fps, 6581 Кbps, 0.402 bit/pixel
Аудио: 48 kHz, AC3 Dolby Digital, 3/2 (L,C,R,l,r) + LFE ch, 640.00 kbps [Rus, Dub]
Аудио #2: 48 kHz, AC3 Dolby Digital, 3/2 (L,C,R,l,r) + LFE ch, 640.00 kbps [Eng, Original]
Cубтитры: Русские, английские (Full+ SDH + Comments)
Навигация по главам: Есть

Media Info

General
Unique ID : 227454595406088513819671297732231538110 (0xAB1E296075A95F15A0DAF0A4BFBBA5BE)
Complete name : D:\Pompeyi.2014.BDRip.720p.mkv
Format : Matroska
Format version : Version 4 / Version 2
File size : 5.76 GiB
Duration : 1h 44mn
Overall bit rate : 7 859 Kbps
Encoded date : UTC 2014-05-17 09:08:39
Writing application : mkvmerge v5.9.0 ('On The Loose') built on Dec 15 2012 16:39:58
Writing library : libebml v1.3.0 + libmatroska v1.4.0
Video
ID : 1
Format : AVC
Format/Info : Advanced Video Codec
Format profile : [email protected]
Format settings, CABAC : Yes
Format settings, ReFrames : 8 frames
Codec ID : V_MPEG4/ISO/AVC
Duration : 1h 44mn
Bit rate : 6 581 Kbps
Width : 1 280 pixels
Height : 534 pixels
Display aspect ratio : 2.40:1
Frame rate mode : Constant
Frame rate : 23.976 fps
Color space : YUV
Chroma subsampling : 4:2:0
Bit depth : 8 bits
Scan type : Progressive
Bits/(Pixel*Frame) : 0.402
Stream size : 4.71 GiB (82%)
Writing library : x264 core 130 r2273 b3065e6
Encoding settings : cabac=1 / ref=8 / deblock=1:-3:-2 / analyse=0x3:0x133 / me=umh / subme=11 / psy=1 / psy_rd=0.99:0.00 / mixed_ref=1 / me_range=32 / chroma_me=1 / trellis=2 / 8x8dct=1 / cqm=0 / deadzone=21,11 / fast_pskip=0 / chroma_qp_offset=-2 / threads=9 / lookahead_threads=6 / sliced_threads=0 / nr=0 / decimate=0 / interlaced=0 / bluray_compat=0 / constrained_intra=0 / bframes=9 / b_pyramid=2 / b_adapt=2 / b_bias=0 / direct=3 / weightb=1 / open_gop=0 / weightp=2 / keyint=250 / keyint_min=23 / scenecut=40 / intra_refresh=0 / rc_lookahead=60 / rc=2pass / mbtree=0 / bitrate=6581 / ratetol=1.0 / qcomp=0.70 / qpmin=0 / qpmax=69 / qpstep=4 / cplxblur=20.0 / qblur=0.5 / vbv_maxrate=50000 / vbv_bufsize=62500 / nal_hrd=none / ip_ratio=1.35 / pb_ratio=1.25 / aq=1:0.80
Language : English
Default : Yes
Forced : No
Audio #1
ID : 2
Format : AC-3
Format/Info : Audio Coding 3
Mode extension : CM (complete main)
Format settings, Endianness : Big
Codec ID : A_AC3
Duration : 1h 44mn
Bit rate mode : Constant
Bit rate : 640 Kbps
Channel(s) : 6 channels
Channel positions : Front: L C R, Side: L R, LFE
Sampling rate : 48.0 KHz
Bit depth : 16 bits
Compression mode : Lossy
Delay relative to video : 20ms
Stream size : 481 MiB (8%)
Title : Dub | DD 5.1 @ 640 kbps - BD RUS
Language : Russian
Default : Yes
Forced : No
Audio #2
ID : 3
Format : AC-3
Format/Info : Audio Coding 3
Mode extension : CM (complete main)
Format settings, Endianness : Big
Codec ID : A_AC3
Duration : 1h 44mn
Bit rate mode : Constant
Bit rate : 640 Kbps
Channel(s) : 6 channels
Channel positions : Front: L C R, Side: L R, LFE
Sampling rate : 48.0 KHz
Bit depth : 16 bits
Compression mode : Lossy
Stream size : 481 MiB (8%)
Title : Original | DD 5.1 @ 640 kbps
Language : English
Default : No
Forced : No
Text #1
ID : 4
Format : UTF-8
Codec ID : S_TEXT/UTF8
Codec ID/Info : UTF-8 Plain Text
Language : Russian
Default : No
Forced : No
Text #2
ID : 5
Format : UTF-8
Codec ID : S_TEXT/UTF8
Codec ID/Info : UTF-8 Plain Text
Title : Full
Language : English
Default : No
Forced : No
Text #3
ID : 6
Format : UTF-8
Codec ID : S_TEXT/UTF8
Codec ID/Info : UTF-8 Plain Text
Title : SDH
Language : English
Default : No
Forced : No
Text #4
ID : 7
Format : UTF-8
Codec ID : S_TEXT/UTF8
Codec ID/Info : UTF-8 Plain Text
Title : Comments
Language : English
Default : No
Forced : No
Menu
00:05:27.076 : en:(01)00:05:27:076
00:09:51.674 : en:(02)00:09:51:674
00:15:58.457 : en:(03)00:15:58:457
00:19:52.858 : en:(04)00:19:52:858
00:26:45.103 : en:(05)00:26:45:103
00:32:36.621 : en:(06)00:32:36:621
00:38:18.838 : en:(07)00:38:18:838
00:47:35.811 : en:(08)00:47:35:811
00:52:17.717 : en:(09)00:52:17:717
01:03:25.218 : en:(10)01:03:25:218
01:09:02.930 : en:(11)01:09:02:930
01:17:27.309 : en:(12)01:17:27:309
01:23:46.521 : en:(13)01:23:46:521
01:30:04.148 : en:(14)01:30:04:148
01:35:08.119 : en:(15)01:35:08:119

Скриншоты

Яндекс.Метрика
Рейтинг@Mail.ru