(Авторская песня, рок-н-ролл, блюз) Юрий Лоза - 3D (3 CD) - 2011, FLAC (image + .cue), lossless

 

Создавать темы 16-Май-2014 15:58

Юрий Лоза - 3D (3 CD)
Страна: Россия
Жанр: Авторская песня, рок-н-ролл, блюз
Год выпуска: 2011
Формат: FLAC (image + .cue)
Битрейт аудио: lossless
Продолжительность: 03:54:22
Трэклист:
CD1
Продолжительность: 01:17:53
01. Плот (5:09)
02. Сто часов (3:34)
03. Опять (4:19)
04. Мать пишет (2:38)
05. Дорога (4:20)
06. Детские глаза (4:02)
07. Не принимай (4:15)
08. Подожди (4:41)
09. Заповедные места (2:46)
10. Ты был прав (4:28)
11. Что сказано, то сказано (5:02)
12. Пой, моя гитара (4:13)
13. Лохматый мой друг (4:35)
14. Нашей любви ночь (4:36)
15. Цыганская душа (4:05)

Продолжение треклиста:

16. Санта-Круз (4:32)
17. Июльской ночью (7:29)
18. У моей зазнобы (3:09)

Отчёт ЕАС:

Exact Audio Copy V1.0 beta 1 from 15. November 2010
Отчёт EAC об извлечении, выполненном 27. ноября 2011, 21:24
Юрий Лоза / 3D_CD1
Дисковод: _NEC    DV-5800E   Adapter: 0  ID: 1
Режим чтения                 : Достоверность
Использование точного потока : Да
Отключение кэша аудио        : Да
Использование указателей C2  : Нет
Коррекция смещения при чтении                     : 6
Способность читать области Lead-in и Lead-out     : Нет
Заполнение пропущенных сэмплов тишиной            : Да
Удаление блоков с тишиной в начале и конце        : Нет
При вычислениях CRC использовались нулевые сэмплы : Да
Интерфейс                                         : Установленный внешний ASPI-интерфейс
Выходной формат : Внутренние WAV-операции
Формат сэмплов  : 44.100 Гц; 16 бит; стерео
TOC извлечённого CD
     Трек |   Старт  | Длительность | Начальный сектор | Конечный сектор
    ---------------------------------------------------------------------
       1  |  0:00.00 |    5:09.00   |           0      |      23174
       2  |  5:09.00 |    3:34.00   |       23175      |      39224
       3  |  8:43.00 |    4:19.00   |       39225      |      58649
       4  | 13:02.00 |    2:38.00   |       58650      |      70499
       5  | 15:40.00 |    4:20.00   |       70500      |      89999
       6  | 20:00.00 |    4:02.00   |       90000      |     108149
       7  | 24:02.00 |    4:15.00   |      108150      |     127274
       8  | 28:17.00 |    4:41.00   |      127275      |     148349
       9  | 32:58.00 |    2:46.00   |      148350      |     160799
      10  | 35:44.00 |    4:28.00   |      160800      |     180899
      11  | 40:12.00 |    5:02.00   |      180900      |     203549
      12  | 45:14.00 |    4:13.00   |      203550      |     222524
      13  | 49:27.00 |    4:35.00   |      222525      |     243149
      14  | 54:02.00 |    4:36.00   |      243150      |     263849
      15  | 58:38.00 |    4:05.00   |      263850      |     282224
      16  | 62:43.00 |    4:32.00   |      282225      |     302624
      17  | 67:15.00 |    7:29.00   |      302625      |     336299
      18  | 74:44.00 |    3:09.00   |      336300      |     350474
Характеристики диапазона извлечения и сообщения об ошибках
Выбранный диапазон
     Имя файла C:\Documents and Settings\Admin\Рабочий стол\Лоза Юрий - 3D (1 CD) (2011г.)\Юрий Лоза - 3D_CD1.wav
     Пиковый уровень 100.0 %
0.5 X
     Качество диапазона 100.0 %
     CRC теста FF38573F
     CRC копии FF38573F
     Копирование... OK
Ошибок не произошло

CD2

Продолжительность: 01:18:58
01. Я умею мечтать (4:26)
02. Пиво (3:52)
03. Мой трамвай последний (4:36)
04. К тебе, Москва (4:58)
05. Зима (4:05)
06. Смерть (4:13)
07. Тоска (5:11)
08. Зачем (3:43)
09. Там, далеко (4:06)
10. Память (4:36)
11. Не так (4:31)
12. Итог (3:52)
13. Резиновые дни (4:01)
14. Одиночество (3:56)
15. Есть повод для печали (4:08)
16. Памяти Виктора Резникова (4:18)
17. Стерва (3:49)
18. О. новый день (6:36)

Отчёт ЕАС:

Exact Audio Copy V1.0 beta 1 from 15. November 2010
Отчёт EAC об извлечении, выполненном 27. ноября 2011, 21:51
Юрий Лоза / 3D_CD2
Дисковод: _NEC    DV-5800E   Adapter: 0  ID: 1
Режим чтения                 : Достоверность
Использование точного потока : Да
Отключение кэша аудио        : Да
Использование указателей C2  : Нет
Коррекция смещения при чтении                     : 6
Способность читать области Lead-in и Lead-out     : Нет
Заполнение пропущенных сэмплов тишиной            : Да
Удаление блоков с тишиной в начале и конце        : Нет
При вычислениях CRC использовались нулевые сэмплы : Да
Интерфейс                                         : Установленный внешний ASPI-интерфейс
Выходной формат : Внутренние WAV-операции
Формат сэмплов  : 44.100 Гц; 16 бит; стерео
TOC извлечённого CD
     Трек |   Старт  | Длительность | Начальный сектор | Конечный сектор
    ---------------------------------------------------------------------
       1  |  0:00.00 |    4:26.00   |           0      |      19949
       2  |  4:26.00 |    3:52.00   |       19950      |      37349
       3  |  8:18.00 |    4:36.00   |       37350      |      58049
       4  | 12:54.00 |    4:58.00   |       58050      |      80399
       5  | 17:52.00 |    4:05.00   |       80400      |      98774
       6  | 21:57.00 |    4:13.00   |       98775      |     117749
       7  | 26:10.00 |    5:10.74   |      117750      |     141073
       8  | 31:20.74 |    3:42.74   |      141074      |     157797
       9  | 35:03.73 |    4:06.00   |      157798      |     176247
      10  | 39:09.73 |    4:35.74   |      176248      |     196946
      11  | 43:45.72 |    4:31.00   |      196947      |     217271
      12  | 48:16.72 |    3:52.37   |      217272      |     234708
      13  | 52:09.34 |    4:01.37   |      234709      |     252820
      14  | 56:10.71 |    3:56.00   |      252821      |     270520
      15  | 60:06.71 |    4:08.00   |      270521      |     289120
      16  | 64:14.71 |    4:18.00   |      289121      |     308470
      17  | 68:32.71 |    3:49.00   |      308471      |     325645
      18  | 72:21.71 |    6:36.00   |      325646      |     355345
Характеристики диапазона извлечения и сообщения об ошибках
Выбранный диапазон
     Имя файла C:\Documents and Settings\Admin\Рабочий стол\Лоза Юрий 3D (2 CD) (2011г.)\Юрий Лоза - 3D_CD2.wav
     Пиковый уровень 100.0 %
1.0 X
     Качество диапазона 100.0 %
     CRC теста A4277FE3
     CRC копии A4277FE3
     Копирование... OK
Ошибок не произошло

CD3

Продолжительность: 01:17:31
01. Иду в компанию (3:12)
02. Достала (3:49)
03. Жигули (3:35)
04. Девочка в баре (3:33)
05. У меня мал папа (3:48)
06. Вокзальные буфеты (4:23)
07. Любовь (4:12)
08. Ах, какие ножки (3:14)
09. Пробуждение (5:46)
10. Веселье новогоднее (3:39)
11. Полночный блюз (4:33)
12. Мой приятель- голубой (5:37)
13. Пора по чуть-чуть (5:18)
14. Баба Люба (4:50)
15. Исполнительный лист (3:41)
16. Песня проститутки (3:39)
17. Памяти Высоцкого (2:29)
18. Визит (3:37)
19. Над деревней Клюевкой (3:32)
20. Времечко (1:04)

Отчёт ЕАС:

Exact Audio Copy V1.0 beta 1 from 15. November 2010
Отчёт EAC об извлечении, выполненном 27. ноября 2011, 22:24
Юрий Лоза / 3D_CD3
Дисковод: _NEC    DV-5800E   Adapter: 0  ID: 1
Режим чтения                 : Достоверность
Использование точного потока : Да
Отключение кэша аудио        : Да
Использование указателей C2  : Нет
Коррекция смещения при чтении                     : 6
Способность читать области Lead-in и Lead-out     : Нет
Заполнение пропущенных сэмплов тишиной            : Да
Удаление блоков с тишиной в начале и конце        : Нет
При вычислениях CRC использовались нулевые сэмплы : Да
Интерфейс                                         : Установленный внешний ASPI-интерфейс
Выходной формат : Внутренние WAV-операции
Формат сэмплов  : 44.100 Гц; 16 бит; стерео
TOC извлечённого CD
     Трек |   Старт  | Длительность | Начальный сектор | Конечный сектор
    ---------------------------------------------------------------------
       1  |  0:00.00 |    3:12.00   |           0      |      14399
       2  |  3:12.00 |    3:49.00   |       14400      |      31574
       3  |  7:01.00 |    3:35.00   |       31575      |      47699
       4  | 10:36.00 |    3:33.00   |       47700      |      63674
       5  | 14:09.00 |    3:48.00   |       63675      |      80774
       6  | 17:57.00 |    4:23.00   |       80775      |     100499
       7  | 22:20.00 |    4:12.00   |      100500      |     119399
       8  | 26:32.00 |    3:14.00   |      119400      |     133949
       9  | 29:46.00 |    5:46.00   |      133950      |     159899
      10  | 35:32.00 |    3:39.00   |      159900      |     176324
      11  | 39:11.00 |    4:33.00   |      176325      |     196799
      12  | 43:44.00 |    5:37.00   |      196800      |     222074
      13  | 49:21.00 |    5:18.00   |      222075      |     245924
      14  | 54:39.00 |    4:50.00   |      245925      |     267674
      15  | 59:29.00 |    3:41.00   |      267675      |     284249
      16  | 63:10.00 |    3:39.00   |      284250      |     300674
      17  | 66:49.00 |    2:29.15   |      300675      |     311864
      18  | 69:18.15 |    3:37.00   |      311865      |     328139
      19  | 72:55.15 |    3:32.00   |      328140      |     344039
      20  | 76:27.15 |    1:04.00   |      344040      |     348839
Характеристики диапазона извлечения и сообщения об ошибках
Выбранный диапазон
     Имя файла C:\Documents and Settings\Admin\Рабочий стол\Лоза Юрий - 3D (3 CD) (2011г.)\Юрий Лоза - 3D_CD3.wav
     Пиковый уровень 98.8 %
0.1 X
     Качество диапазона 100.0 %
     CRC теста 463ACA0A
     CRC копии 463ACA0A
     Копирование... OK
Ошибок не произошло
Яндекс.Метрика
Рейтинг@Mail.ru