[ Сегодня на трекере фрилич! Идет свободное скачивание без начисления Download ]

Большое ограбление / Balamgwa Hamgge Sarajida / The Grand Heist (2012) BDRip 1080p | L1

 

Создавать темы 16-Май-2014 14:40

Большое ограбление / Balamgwa Hamgge Sarajida / The Grand Heist

Год выхода: 2012
Жанр: боевик, комедия, исторический
Режиссер: Ким Джо Ху
В ролях: Чха Тхэ Хён, Ли Чхэ Ён, Чан-сок Ко, Мин Хё Рин, О Чжи Хо, Син Чжон Гын
О фильме:
Все события происходят в самом конце восемнадцатого века, когда у власти находилась династия Чосон. Лед в то время ценился гораздо дороже золота, что парадоксально для современных людей. Зимой специально обученные люди собирают лед в горах и по рекам сплавляют его в королевские ледники. Там глыбы льда хранятся все теплое время и выдаются малыми партиями по нужде. Однако коррумпированные чиновники, заведующие выдачей льда решили нажиться на этом редком товаре и взвинтили цены до огромных вершин. Но не все согласны с подобным ходом вещей, одиннадцать лучших воров государства объединяются в одну команду с целью похищения у жадных чиновников всех запасов льда.
Выпущено: Южная Корея
Продолжительность: 02:01:12
Озвучивание: Любительское (одноголосое) [mi24]
Файл
Формат: MKV
Качество: BDRip 1080p [CHD]
Видео: 8778 kb/s, 1920х816
Аудио: Russian: AC3, 192 kb/s (2 ch) / Korean: DTS, 1510 kb/s (6 ch)
Субтитры: Russian [ФСГ Beloved Onnies], English
Дополнительно: Сохранены оригинальные чаптеры как на Blu-Ray
Скачать: Сэмпл

Скриншоты:

NFO

Общее
The.Grand.Heist.2012.Blu.Ray.1080p.mkv
Формат : Matroska
Версия формата : Version 4 / Version 2
Размер файла : 8,86 Гбайт
Продолжительность : 2 ч. 1 м.
Общий поток : 10,5 Мбит/сек
Название фильма : Release Group
Дата кодирования : UTC 2014-05-15 12:39:13
Программа кодирования : mkvmerge v6.9.1 ('Blue Panther') 64bit built on Apr 18 2014 18:23:38
Библиотека кодирования : libebml v1.3.0 + libmatroska v1.4.1
Видео
Идентификатор : 1
Формат : AVC
Формат/Информация : Advanced Video Codec
Профиль формата : [email protected]
Параметр CABAC формата : Да
Параметр ReFrames формата : 5 кадров
Идентификатор кодека : V_MPEG4/ISO/AVC
Продолжительность : 2 ч. 1 м.
Битрейт : 8778 Кбит/сек
Ширина : 1920 пикселей
Высота : 816 пикселей
Соотношение сторон : 2,35:1
Режим частоты кадров : Постоянный
Частота кадров : 23,976 кадра/сек
Цветовое пространство : YUV
Субдискретизация насыщенности : 4:2:0
Битовая глубина : 8 бит
Тип развёртки : Прогрессивная
Бит/(Пиксели*Кадры) : 0.234
Размер потока : 7,24 Гбайт (82%)
Заголовок : Release Group
Библиотека кодирования : x264 core 125 r2200 999b753
Настройки программы : cabac=1 / ref=5 / deblock=1:-3:-3 / analyse=0x3:0x113 / me=umh / subme=10 / psy=1 / psy_rd=1.05:0.10 / mixed_ref=1 / me_range=48 / chroma_me=1 / trellis=2 / 8x8dct=1 / cqm=0 / deadzone=21,11 / fast_pskip=0 / chroma_qp_offset=-2 / threads=12 / lookahead_threads=2 / sliced_threads=0 / nr=0 / decimate=1 / interlaced=0 / bluray_compat=0 / constrained_intra=0 / bframes=6 / b_pyramid=2 / b_adapt=2 / b_bias=0 / direct=3 / weightb=1 / open_gop=0 / weightp=2 / keyint=250 / keyint_min=23 / scenecut=40 / intra_refresh=0 / rc_lookahead=40 / rc=2pass / mbtree=0 / bitrate=8778 / ratetol=2.0 / qcomp=0.70 / qpmin=0 / qpmax=69 / qpstep=4 / cplxblur=20.0 / qblur=0.5 / vbv_maxrate=40000 / vbv_bufsize=30000 / nal_hrd=none / ip_ratio=1.40 / pb_ratio=1.30 / aq=2:1.00
Язык : English
Default : Да
Forced : Нет
Аудио #1
Идентификатор : 2
Формат : AC-3
Формат/Информация : Audio Coding 3
Расширение режима : CM (complete main)
Параметр Endianness формата : Big
Идентификатор кодека : A_AC3
Продолжительность : 2 ч. 1 м.
Вид битрейта : Постоянный
Битрейт : 192 Кбит/сек
Каналы : 2 канала
Расположение каналов : Front: L R
Частота : 48,0 КГц
Битовая глубина : 16 бит
Метод сжатия : С потерями
Размер потока : 166 Мбайт (2%)
Заголовок : mi24
Язык : Russian
Default : Да
Forced : Да
Аудио #2
Идентификатор : 3
Формат : DTS
Формат/Информация : Digital Theater Systems
Режим : 16
Параметр Endianness формата : Big
Идентификатор кодека : A_DTS
Продолжительность : 2 ч. 1 м.
Вид битрейта : Постоянный
Битрейт : 1509 Кбит/сек
Каналы : 6 каналов
Расположение каналов : Front: L C R, Side: L R, LFE
Частота : 48,0 КГц
Битовая глубина : 24 бит
Метод сжатия : С потерями
Размер потока : 1,28 Гбайт (14%)
Язык : Korean
Default : Нет
Forced : Нет
Текст #1
Идентификатор : 4
Формат : UTF-8
Идентификатор кодека : S_TEXT/UTF8
Идентификатор кодека/Информация : UTF-8 Plain Text
Заголовок : ФСГ Beloved Onnies
Язык : Russian
Default : Нет
Forced : Нет
Текст #2
Идентификатор : 5
Формат : UTF-8
Идентификатор кодека : S_TEXT/UTF8
Идентификатор кодека/Информация : UTF-8 Plain Text
Язык : English
Default : Нет
Forced : Нет
Меню
00:00:00.000 : en:00:00:00.000
00:12:18.988 : en:00:12:18.988
00:29:48.620 : en:00:29:48.620
00:36:39.155 : en:00:36:39.155
00:43:54.882 : en:00:43:54.882
00:57:17.142 : en:00:57:17.142
01:12:57.707 : en:01:12:57.707
01:20:18.564 : en:01:20:18.564
01:29:43.920 : en:01:29:43.920
01:37:44.650 : en:01:37:44.650
01:50:29.957 : en:01:50:29.957
01:56:56.551 : en:01:56:56.551
Яндекс.Метрика
Рейтинг@Mail.ru