451 градус по Фаренгейту / Fahrenheit 451 (1966) BDRip [1080p]

 

Создавать темы 17-Окт-2013 08:26

-451 градус по Фаренгейту / Fahrenheit 451 (1966) BDRip-
Год выпуска: 1966
Страна: Великобритания
Жанр: Фантастика, Триллер, Драма--Описание фильма:
Мир будущего, в котором все письменные издания безжалостно уничтожаются специальным отрядом пожарных-огнеметчиков, а интерес к книгам и их хранение преследуются по закону.
Сержант Гай Монтэг слепо выполняет приказы по уничтожению литературы, но встреча с юной Клариссой заставляет его переосмыслить свою жизнь. Он становится инакомыслящим — отщепенцем в тоталитарном обществе, читающем только комиксы.--Режиссер: Франсуа Трюффо
Актеры: Оскар Вернер, Джули Кристи, Сирил Кьюcак, Антон Диффринг, Джереми Спенсер, Би Даффелл, Ноэл Дэвис, Джиллиан Алдам, Майкл Бальфур, Энн Белл
Продолжительность: 01:52:25
Качество видео: BDRip 1080p
Перевод: Профессиональный (многоголосый закадровый) - СТС
Язык субтитров: Русский, английский
Вид субтитров: Вшитые отключаемые

Дата мировой премьеры: 15 сентября 1966
Видеокодек: MPEG-4 AVC/H.264
Битрейт видео: ~9349 Кбит/сек
Размер кадра: 1920x1040
Аудиокодек: AC3 , DTS
Аудио #1: Русский ( AC3 / 2.0 / 48 kHz / 192 kbps ) - Профессиональный (многоголосый)
Аудио #2: Английский ( DTS / 2.0 / 48 kHz / 768 kbps )
-

MediaInfo:

Общее
Уникальный идентификатор                 : 247172109628018784953815018900148831683 (0xB9F39DE25840B01E8E29C626BBDDC5C3)
Полное имя                               : 451 градус по Фаренгейту _ Fahrenheit 451 (1966) BDRip.1080p.mkv
Формат                                   : Matroska
Версия формата                           : Version 2
Размер файла                             : 8,10 Гбайт
Продолжительность                        : 1 ч. 52 м.
Общий поток                              : 10,3 Мбит/сек
Дата кодирования                         : UTC 2013-10-14 13:28:11
Программа кодирования                    : mkvmerge v4.0.0 ('The Stars were mine') сборка от Jun  6 2010 16:18:42
Библиотека кодирования                   : libebml v1.0.0 + libmatroska v1.0.0
Видео
Идентификатор                            : 1
Формат                                   : AVC
Формат/Информация                        : Advanced Video Codec
Профиль формата                          : [url=mailto:[email protected]][email protected][/url]
Параметр CABAC формата                   : Да
Параметр ReFrames формата                : 4 кадра
Идентификатор кодека                     : V_MPEG4/ISO/AVC
Продолжительность                        : 1 ч. 52 м.
Битрейт                                  : 9349 Кбит/сек
Ширина                                   : 1920 пикселей
Высота                                   : 1040 пикселей
Соотношение сторон                       : 1,85:1
Режим частоты кадров                     : Постоянный
Частота кадров                           : 23,976 кадра/сек
Цветовое пространство                    : YUV
Субдискретизация насыщенности            : 4:2:0
Битовая глубина                          : 8 бит
Тип развёртки                            : Прогрессивная
Бит/(Пиксели*Кадры)                      : 0.195
Размер потока                            : 7,18 Гбайт (89%)
Библиотека кодирования                   : x264 core 138 r2358kMod 9e941d1
Настройки программы                      : cabac=1 / ref=4 / deblock=1:-3:-3 / analyse=0x3:0x113 / me=umh / subme=8 / psy=1 / fade_compensate=0.00 / psy_rd=1.00:0.15 / mixed_ref=1 / me_range=16 / chroma_me=1 / trellis=1 / 8x8dct=1 / cqm=0 / deadzone=21,11 / fast_pskip=0 / chroma_qp_offset=-3 / threads=12 / lookahead_threads=2 / sliced_threads=0 / nr=0 / decimate=1 / interlaced=0 / bluray_compat=0 / constrained_intra=0 / bframes=3 / b_pyramid=2 / b_adapt=2 / b_bias=0 / direct=3 / weightb=1 / open_gop=0 / weightp=2 / keyint=250 / keyint_min=23 / scenecut=40 / intra_refresh=0 / rc_lookahead=50 / rc=2pass / mbtree=1 / bitrate=9349 / ratetol=1.0 / qcomp=0.60 / qpmin=0 / qpmax=69 / qpstep=4 / cplxblur=20.0 / qblur=0.5 / ip_ratio=1.40 / aq=1:1.00
Язык                                     : English
Default                                  : Нет
Forced                                   : Нет
Аудио #1
Идентификатор                            : 2
Формат                                   : AC-3
Формат/Информация                        : Audio Coding 3
Расширение режима                        : CM (complete main)
Параметр Endianness формата              : Big
Идентификатор кодека                     : A_AC3
Продолжительность                        : 1 ч. 52 м.
Вид битрейта                             : Постоянный
Битрейт                                  : 192 Кбит/сек
Каналы                                   : 2 канала
Расположение каналов                     : Front: L R
Частота                                  : 48,0 КГц
Битовая глубина                          : 16 бит
Метод сжатия                             : С потерями
Размер потока                            : 154 Мбайт (2%)
Язык                                     : Russian
Default                                  : Нет
Forced                                   : Нет
Аудио #2
Идентификатор                            : 3
Формат                                   : DTS
Формат/Информация                        : Digital Theater Systems
Режим                                    : 16
Параметр Endianness формата              : Big
Идентификатор кодека                     : A_DTS
Продолжительность                        : 1 ч. 52 м.
Вид битрейта                             : Постоянный
Битрейт                                  : 768 Кбит/сек
Каналы                                   : 2 канала
Расположение каналов                     : Front: L R
Частота                                  : 48,0 КГц
Битовая глубина                          : 24 бит
Метод сжатия                             : С потерями
Задержка видео                           : 11 мс.
Размер потока                            : 618 Мбайт (7%)
Язык                                     : English
Default                                  : Нет
Forced                                   : Нет
Текст #1
Идентификатор                            : 4
Формат                                   : UTF-8
Идентификатор кодека                     : S_TEXT/UTF8
Идентификатор кодека/Информация          : UTF-8 Plain Text
Язык                                     : Russian
Default                                  : Нет
Forced                                   : Нет
Текст #2
Идентификатор                            : 5
Формат                                   : UTF-8
Идентификатор кодека                     : S_TEXT/UTF8
Идентификатор кодека/Информация          : UTF-8 Plain Text
Заголовок                                : SDH
Язык                                     : English
Default                                  : Нет
Forced                                   : Нет
Текст #3
Идентификатор                            : 6
Формат                                   : UTF-8
Идентификатор кодека                     : S_TEXT/UTF8
Идентификатор кодека/Информация          : UTF-8 Plain Text
Язык                                     : English
Default                                  : Нет
Forced                                   : Нет
Меню
00:00:00.000                             : en:00:00:00.000
00:07:56.267                             : en:00:07:56.267
00:13:58.379                             : en:00:13:58.379
00:20:16.507                             : en:00:20:16.507
00:27:40.492                             : en:00:27:40.492
00:34:41.955                             : en:00:34:41.955
00:41:41.582                             : en:00:41:41.582
00:53:57.109                             : en:00:53:57.109
01:06:37.452                             : en:01:06:37.452
01:19:06.617                             : en:01:19:06.617
01:31:36.282                             : en:01:31:36.282
01:41:48.477                             : en:01:41:48.477
-Скриншоты:




Время раздачи: с 10:00 до 23:00 ежедневно
Яндекс.Метрика
Рейтинг@Mail.ru